Идеальный день / A Perfect Day (2015) BDRemux 1080p | L

 
Автор Сообщение

достали все ®

Пол:

Стаж: 1 год 8 месяцев

Сообщений: 6571



Награды: 12 (Подробнее)

Mega Releaser 1 (Количество: 1) За внесенный вклад в развитие сайта (Количество: 1) Mega Seeder 5 (Количество: 1)
Торрент-статистика

Создавать темы 07-Апр-2016 09:26

[Цитировать]

Информация о фильме
Название: Идеальный день
Оригинальное название: A Perfect Day
Год выхода: 2015
Жанр: Драма
Режиссер: Фернандо Леон Де Араноа
В ролях: Бенисио Дель Торо, Тим Роббинс, Ольга Куриленко, Мелани Тьерри, Федя Стукан, Серхи Лопес, Ненад Вукелич, Франк Фейс, Мортен Суурбалле
О фильме:
Группа сотрудников гуманитарной службы пытается достать труп из колодца в зоне конфликта. Кто-то бросил туда тело, чтобы отравить воду, и местные люди мучаются от жажды. Задача, которая кажется простейшей, превращается в невыполнимую миссию, в которой злейший враг — иррациональность. Работники пересекают местность, охваченную войной, пытаясь решить эту проблему.

Страна: Испания
Студия: Mediapro, Reposado Producciones, Televisión Española (TVE)
Продолжительность: 01:46:03
Перевод: Любительский многоголосый (закадровый)
Файл
Кодек: MPEG-4
Качество: BDRemux 1080p
Видео: 1920x1080, 21.8 Mbit/s, 23.976 fps
Звук:
Аудио #1: 48.0 Khz, AC3, 5.1, 448 Kbps | Любительский многоголосый (закадровый), студия "Paradox" & "Omskbird records" | RUS
Аудио #2: 48.0 Khz, DTS-HD MA, 5.1, 1960 Kbps | Оригинал | ENG
Субтитры: Английские (forced, full)
Релиз от:
Примечание: Без рекламы.

Media-info

Формат : Matroska
Версия формата : Version 4 / Version 2
Размер файла : 17,9 Гбайт
Продолжительность : 1 ч. 45 м.
Режим общего битрейта : Переменный
Общий поток : 24,2 Мбит/сек
Название фильма : A.Perfect.Day.2015.BDREMUX.1080p
Дата кодирования : UTC 2016-04-07 05:31:47
Программа кодирования : mkvmerge v8.3.0 ('Over the Horizon') 64bit
Библиотека кодирования : libebml v1.3.1 + libmatroska v1.4.2
Обложка : Yes
Attachments : cover_land.jpg / small_cover.jpg / small_cover_land.jpg / cover.jpg
Видео
Идентификатор : 1
Формат : AVC
Формат/Информация : Advanced Video Codec
Профиль формата : High@L4.1
Параметр CABAC формата : Да
Параметр ReFrames формата : 4 кадра
Идентификатор кодека : V_MPEG4/ISO/AVC
Продолжительность : 1 ч. 45 м.
Вид битрейта : Переменный
Битрейт : 21,8 Мбит/сек
Максимальный битрейт : 35,0 Мбит/сек
Ширина : 1920 пикселей
Высота : 1080 пикселей
Соотношение сторон : 16:9
Режим частоты кадров : Постоянный
Частота кадров : 24,000 кадра/сек
Стандарт вещания : NTSC
Цветовое пространство : YUV
Субдискретизация насыщенности : 4:2:0
Битовая глубина : 8 бит
Тип развёртки : Прогрессивная
Бит/(Пиксели*Кадры) : 0.438
Размер потока : 16,1 Гбайт (90%)
Язык : English
Default : Нет
Forced : Нет
Цветовой диапазон : Limited
Основные цвета : BT.709
Характеристики трансфера : BT.709
Коэффициенты матрицы : BT.709
Аудио #1
Идентификатор : 2
Формат : AC-3
Формат/Информация : Audio Coding 3
Расширение режима : CM (complete main)
Параметр Endianness формата : Big
Идентификатор кодека : A_AC3
Продолжительность : 1 ч. 45 м.
Вид битрейта : Постоянный
Битрейт : 448 Кбит/сек
Каналы : 6 каналов
Расположение каналов : Front: L C R, Side: L R, LFE
Частота : 48,0 КГц
Частота кадров : 31,250 кадров/сек (1536 spf)
Метод сжатия : С потерями
Размер потока : 340 Мбайт (2%)
Заголовок : MVO
Язык : Russian
Default : Да
Forced : Нет
Аудио #2
Идентификатор : 3
Формат : DTS
Формат/Информация : Digital Theater Systems
Профиль формата : MA / Core
Режим : 16
Параметр Endianness формата : Big
Идентификатор кодека : A_DTS
Продолжительность : 1 ч. 45 м.
Вид битрейта : Переменный / Постоянный
Битрейт : 1960 Кбит/сек / 1509 Кбит/сек
Каналы : 6 каналов
Расположение каналов : Front: L C R, Side: L R, LFE
Частота : 48,0 КГц
Частота кадров : 93,750 кадра/сек (512 spf)
Битовая глубина : 16 бит
Метод сжатия : Без потерь / Lossy
Размер потока : 1,45 Гбайт (8%)
Язык : English
Default : Нет
Forced : Нет
Текст #1
Идентификатор : 4
Формат : UTF-8
Идентификатор кодека : S_TEXT/UTF8
Идентификатор кодека/Информация : UTF-8 Plain Text
Продолжительность : 14 м.
Битрейт : 11 бит/сек
Count of elements : 36
Размер потока : 1,16 Кбайт (0%)
Заголовок : English-FORCED-SRT
Язык : English
Default : Нет
Forced : Нет
Текст #2
Идентификатор : 5
Формат : UTF-8
Идентификатор кодека : S_TEXT/UTF8
Идентификатор кодека/Информация : UTF-8 Plain Text
Продолжительность : 1 ч. 36 м.
Битрейт : 57 бит/сек
Count of elements : 1368
Размер потока : 40,7 Кбайт (0%)
Заголовок : English-SRT
Язык : English
Default : Нет
Forced : Нет
Текст #3
Идентификатор : 6
Формат : UTF-8
Идентификатор кодека : S_TEXT/UTF8
Идентификатор кодека/Информация : UTF-8 Plain Text
Продолжительность : 1 ч. 36 м.
Битрейт : 57 бит/сек
Count of elements : 1368
Размер потока : 40,7 Кбайт (0%)
Заголовок : full
Язык : English
Default : Нет
Forced : Нет
Текст #4
Идентификатор : 7
Формат : VobSub
Режим смешивания : zlib
Идентификатор кодека : S_VOBSUB
Идентификатор кодека/Информация : Picture based subtitle format used on DVDs
Продолжительность : 14 м.
Битрейт : 642 бит/сек
Count of elements : 36
Размер потока : 67,3 Кбайт (0%)
Язык : English
Default : Нет
Forced : Нет
Текст #5
Идентификатор : 8
Формат : UTF-8
Идентификатор кодека : S_TEXT/UTF8
Идентификатор кодека/Информация : UTF-8 Plain Text
Продолжительность : 14 м.
Битрейт : 11 бит/сек
Count of elements : 36
Размер потока : 1,16 Кбайт (0%)
Заголовок : FORCED
Язык : English
Default : Нет
Forced : Нет
Текст #6
Идентификатор : 9
Формат : PGS
Режим смешивания : zlib
Идентификатор кодека : S_HDMV/PGS
Идентификатор кодека/Информация : Picture based subtitle format used on BDs/HD-DVDs
Продолжительность : 14 м.
Битрейт : 3025 бит/сек
Count of elements : 72
Размер потока : 317 Кбайт (0%)
Заголовок : English-FORCED-PGS
Язык : English
Default : Нет
Forced : Нет
Меню
00:00:00.000 : en:Chapter 01
00:09:28.416 : en:Chapter 02
00:17:44.125 : en:Chapter 03
00:29:31.166 : en:Chapter 04
00:40:15.541 : en:Chapter 05
00:50:56.291 : en:Chapter 06
00:58:54.458 : en:Chapter 07
01:05:34.666 : en:Chapter 08
01:21:27.916 : en:Chapter 09
01:26:43.500 : en:Chapter 10
01:32:09.333 : en:Chapter 11
01:42:07.125 : en:Chapter 12

Скриншоты

[Профиль] [ЛС]
Показать сообщения:    

Текущее время: Сегодня 04:24

Часовой пояс: GMT



Вы не можете начинать темы
Вы не можете отвечать на сообщения
Вы не можете редактировать свои сообщения
Вы не можете удалять свои сообщения
Вы не можете голосовать в опросах
Вы не можете прикреплять файлы к сообщениям
Вы не можете скачивать файлы