Идеальный голос 2 / Pitch Perfect 2 (Элизабет Бэнкс / Elizabeth Banks) [2015, США, Комедия, музыка, BDRip-AVC] Dub + Original Eng + Sub (Rus, Eng)

 
Автор Сообщение

TorrentFilm ®

Пол:

Стаж: 2 года

Сообщений: 7741



Награды: Нет

Торрент-статистика

Создавать темы 09-Сен-2015 00:09

[Цитировать]

Идеальный голос 2/Pitch Perfect 2
«Самые крутые девчонки возвращаются»

-
Страна: США
Жанр: Комедия, музыка
Год выпуска: 2015
Продолжительность: 01:54:46-Перевод: Профессиональный (дублированный) Blu-ray CEE
Cубтитры: русские, английские-Режиссер: Элизабет Бэнкс / Elizabeth Banks
В ролях: Анна Кендрик, Ребел Уилсон, Хейли Стайнфелд, Бриттани Сноу, Скайлар Эстин, Адам Дивайн, Кэти Сагал, Анна Кэмп, Бен Платт, Алексис Нэп
Описание: Самые крутые девчонки возвращаются! Теперь у них все по-взрослому: ремиксы – моднее, каблуки – выше, юбки – короче. Но идеальный голос всегда на месте.-Качество видео: BDRip-AVC [Blu-ray CEE HDCLub]
Формат видео: MKV-Видео: х.264, 1008x546 (1.85:1), 23.976 fps, ~2730 Кbps, 0.207 bit/pixel
Аудио 1: AC3 448 Кбит/сек (6 ch), 48,0 КГц, 16 бит | DUB
Аудио 2: AC3 448 Кбит/сек (6 ch), 48,0 КГц, 16 бит | ENG
Формат субтитров: SoftSub (SRT)
-- -
-

MediaInfo & log x264log x264

x264 [info]: using SAR=1/1
x264 [info]: using cpu capabilities: MMX2 SSE2Fast SSSE3 SSE4.2
x264 [info]: profile High, level 4.1
x264 [info]: frame I:1579 Avg QP:15.98 size: 99145
x264 [info]: frame P:43202 Avg QP:19.41 size: 25943
x264 [info]: frame B:120319 Avg QP:21.80 size: 8915
x264 [info]: consecutive B-frames: 5.3% 3.7% 12.0% 28.9% 18.5% 25.9% 3.5% 1.2% 0.5% 0.2% 0.1% 0.0% 0.1% 0.1% 0.2%
x264 [info]: mb I I16..4: 5.2% 68.8% 25.9%
x264 [info]: mb P I16..4: 0.9% 8.4% 2.3% P16..4: 30.2% 32.4% 13.1% 2.3% 0.3% skip:10.1%
x264 [info]: mb B I16..4: 0.1% 1.2% 0.3% B16..8: 32.9% 20.9% 3.9% direct: 4.6% skip:36.0% L0:41.0% L1:44.2% BI:14.9%
x264 [info]: 8x8 transform intra:71.3% inter:61.0%
x264 [info]: direct mvs spatial:97.3% temporal:2.7%
x264 [info]: coded y,uvDC,uvAC intra: 82.5% 92.6% 78.3% inter: 18.9% 25.1% 11.3%
x264 [info]: i16 v,h,dc,p: 31% 12% 6% 51%
x264 [info]: i8 v,h,dc,ddl,ddr,vr,hd,vl,hu: 15% 7% 5% 9% 13% 14% 12% 13% 11%
x264 [info]: i4 v,h,dc,ddl,ddr,vr,hd,vl,hu: 24% 6% 5% 8% 13% 13% 11% 10% 10%
x264 [info]: i8c dc,h,v,p: 39% 19% 22% 20%
x264 [info]: Weighted P-Frames: Y:5.2% UV:3.4%
x264 [info]: ref P L0: 48.5% 9.9% 16.8% 6.3% 5.2% 3.6% 3.3% 1.9% 2.0% 1.8% 0.6% 0.0%
x264 [info]: ref B L0: 76.0% 11.0% 5.1% 2.6% 1.8% 1.5% 1.2% 0.6% 0.3%
x264 [info]: ref B L1: 93.0% 7.0%
x264 [info]: kb/s:2730.09
General
Unique ID                   : 217428164720816799988894143820722762601 (0xA393242D79ADD7969AFB7113D79A7369)
Complete name               : D:\Pitch.Perfect.2.(2015).BDRip-AVC_R.G.All_Films.mkv
Format                      : Matroska
Format version              : Version 4 / Version 2
File size                   : 2.91 GiB
Duration                    : 1h 54mn
Overall bit rate            : 3 629 Kbps
Movie name                  : Идеальный голос 2 / Pitch Perfect 2 (2015) BDRip-AVC by andre90
Encoded date                : UTC 2015-09-07 13:32:12
Writing application         : mkvmerge v7.9.0 ('Birds') 64bit
Writing library             : libebml v1.3.1 + libmatroska v1.4.2
Attachements                : cover.jpg
DURATION                    : 01:50:20.364000000
NUMBER_OF_FRAMES            : 2069
NUMBER_OF_BYTES             : 66259
_STATISTICS_WRITING_APP     : mkvmerge v7.9.0 ('Birds') 64bit
_STATISTICS_WRITING_DATE_UT : 2015-09-07 13:32:12
_STATISTICS_TAGS            : BPS DURATION NUMBER_OF_FRAMES NUMBER_OF_BYTES
Video
ID                          : 1
Format                      : AVC
Format/Info                 : Advanced Video Codec
Format profile              : High@L4.1
Format settings, CABAC      : Yes
Format settings, ReFrames   : 10 frames
Codec ID                    : V_MPEG4/ISO/AVC
Duration                    : 1h 54mn
Bit rate                    : 2 730 Kbps
Width                       : 1 008 pixels
Height                      : 546 pixels
Display aspect ratio        : 1.85:1
Frame rate mode             : Constant
Frame rate                  : 23.976 fps
Color space                 : YUV
Chroma subsampling          : 4:2:0
Bit depth                   : 8 bits
Scan type                   : Progressive
Bits/(Pixel*Frame)          : 0.207
Stream size                 : 2.13 GiB (73%)
Writing library             : x264 core 146 r2538 121396c
Encoding settings           : cabac=1 / ref=10 / deblock=1:-2:-1 / analyse=0x3:0x133 / me=esa / subme=11 / psy=1 / psy_rd=0.91:0.00 / mixed_ref=1 / me_range=48 / chroma_me=1 / trellis=2 / 8x8dct=1 / cqm=0 / deadzone=21,11 / fast_pskip=0 / chroma_qp_offset=-2 / threads=6 / lookahead_threads=1 / sliced_threads=0 / nr=0 / decimate=1 / interlaced=0 / bluray_compat=0 / constrained_intra=0 / bframes=14 / b_pyramid=2 / b_adapt=2 / b_bias=0 / direct=3 / weightb=1 / open_gop=0 / weightp=2 / keyint=240 / keyint_min=23 / scenecut=40 / intra_refresh=0 / rc_lookahead=40 / rc=2pass / mbtree=0 / bitrate=2730 / ratetol=1.0 / qcomp=0.60 / qpmin=0 / qpmax=69 / qpstep=4 / cplxblur=20.0 / qblur=0.5 / vbv_maxrate=50000 / vbv_bufsize=62500 / nal_hrd=none / filler=0 / ip_ratio=1.40 / pb_ratio=1.30 / aq=2:1.00
Default                     : Yes
Forced                      : No
Audio #1
ID                          : 2
Format                      : AC-3
Format/Info                 : Audio Coding 3
Mode extension              : CM (complete main)
Format settings, Endianness : Big
Codec ID                    : A_AC3
Duration                    : 1h 54mn
Bit rate mode               : Constant
Bit rate                    : 448 Kbps
Channel(s)                  : 6 channels
Channel positions           : Front: L C R, Side: L R, LFE
Sampling rate               : 48.0 KHz
Compression mode            : Lossy
Stream size                 : 368 MiB (12%)
Title                       : Dub
Language                    : Russian
Default                     : Yes
Forced                      : No
Audio #2
ID                          : 3
Format                      : AC-3
Format/Info                 : Audio Coding 3
Mode extension              : CM (complete main)
Format settings, Endianness : Big
Codec ID                    : A_AC3
Duration                    : 1h 54mn
Bit rate mode               : Constant
Bit rate                    : 448 Kbps
Channel(s)                  : 6 channels
Channel positions           : Front: L C R, Side: L R, LFE
Sampling rate               : 48.0 KHz
Compression mode            : Lossy
Stream size                 : 368 MiB (12%)
Title                       : Eng
Language                    : English
Default                     : No
Forced                      : No
Text #1
ID                          : 4
Format                      : UTF-8
Codec ID                    : S_TEXT/UTF8
Codec ID/Info               : UTF-8 Plain Text
Title                       : Rus forsed
Language                    : Russian
Default                     : Yes
Forced                      : Yes
Text #2
ID                          : 5
Format                      : UTF-8
Codec ID                    : S_TEXT/UTF8
Codec ID/Info               : UTF-8 Plain Text
Title                       : Rus
Language                    : Russian
Default                     : No
Forced                      : No
Text #3
ID                          : 6
Format                      : UTF-8
Codec ID                    : S_TEXT/UTF8
Codec ID/Info               : UTF-8 Plain Text
Title                       : Eng
Language                    : English
Default                     : No
Forced                      : No
Menu
00:00:00.000                : en:Chapter 1
00:07:33.411                : en:Chapter 2
00:12:00.302                : en:Chapter 3
00:12:59.445                : en:Chapter 4
00:15:55.370                : en:Chapter 5
00:20:56.922                : en:Chapter 6
00:23:15.434                : en:Chapter 7
00:25:52.675                : en:Chapter 8
00:29:59.255                : en:Chapter 9
00:38:14.041                : en:Chapter 10
00:46:43.842                : en:Chapter 11
00:49:46.315                : en:Chapter 12
00:53:19.528                : en:Chapter 13
00:55:10.222                : en:Chapter 14
00:58:07.858                : en:Chapter 15
01:08:42.326                : en:Chapter 16
01:12:22.337                : en:Chapter 17
01:15:45.707                : en:Chapter 18
01:19:10.162                : en:Chapter 19
01:22:46.836                : en:Chapter 20
01:25:09.686                : en:Chapter 21
01:28:07.738                : en:Chapter 22
01:31:15.552                : en:Chapter 23
01:36:02.756                : en:Chapter 24
01:37:35.890                : en:Chapter 25
01:40:35.404                : en:Chapter 26
01:45:16.518                : en:Chapter 27
01:48:44.475                : en:Chapter 28
01:50:31.750                : en:Chapter 29
[Профиль] [ЛС]
Показать сообщения:    

Текущее время: Сегодня 05:19

Часовой пояс: GMT



Вы не можете начинать темы
Вы не можете отвечать на сообщения
Вы не можете редактировать свои сообщения
Вы не можете удалять свои сообщения
Вы не можете голосовать в опросах
Вы не можете прикреплять файлы к сообщениям
Вы не можете скачивать файлы