Идеальный голос 2 / Pitch Perfect 2 (Элизабет Бэнкс / Elizabeth Banks) [2015, США, Комедия, музыка, HDRip] Dub (лицензия)

 
Автор Сообщение

TorrentFilm ®

Пол:

Стаж: 2 года

Сообщений: 7741



Награды: Нет

Торрент-статистика

Создавать темы 01-Сен-2015 00:09

[Цитировать]

Идеальный голос 2 / Pitch Perfect 2
Страна: США
Жанр: Комедия, музыка
Год выпуска: 2015
Продолжительность: 01:54:39
Перевод: Профессиональный (дублированный) лицензия
Cубтитры: нет
Режиссер: Элизабет Бэнкс / Elizabeth Banks
В ролях: Анна Кендрик, Ребел Уилсон, Хейли Стайнфелд, Бриттани Сноу, Скайлар Эстин, Адам Дивайн, Кэти Сагал, Анна Кэмп, Бен Платт, Алексис Нэп.
Описание: Самые крутые девчонки возвращаются! Теперь у них все по-взрослому: ремиксы - моднее, каблуки - выше, юбки - короче. Но идеальный голос всегда на месте.
Сэмпл: http://multi-up.com/1064243
Качество видео: HDRip (исходник не известен)
Формат видео: AVI
Видео: Xvid 704x384 23.98fps 1 380 Kbps
Аудио: Dolby AC3 48000Hz 6ch 448kbps

MediaInfo

Format : AVI
Format/Info : Audio Video Interleave
File size : 1.47 GiB
Duration : 1h 54mn
Overall bit rate : 1 837 Kbps
Writing application : VirtualDubModRus 1.5.10.2 (build 2542/release)
Writing library : VirtualDubMod build 2542/release
Video
ID : 0
Format : MPEG-4 Visual
Format profile : Advanced Simple@L5
Format settings, BVOP : Yes
Format settings, QPel : No
Format settings, GMC : No warppoints
Format settings, Matrix : Custom
Codec ID : XVID
Codec ID/Hint : XviD
Duration : 1h 54mn
Bit rate : 1 380 Kbps
Width : 704 pixels
Height : 384 pixels
Display aspect ratio : 16:9
Frame rate : 23.976 fps
Resolution : 8 bits
Colorimetry : 4:2:0
Scan type : Progressive
Bits/(Pixel*Frame) : 0.213
Stream size : 1.11 GiB (75%)
Writing library : XviD 73
Audio
ID : 1
Format : AC-3
Format/Info : Audio Coding 3
Codec ID : 2000
Duration : 1h 54mn
Bit rate mode : Constant
Bit rate : 448 Kbps
Channel(s) : 6 channels
Channel positions : Front: L C R, Surround: L R, LFE
Sampling rate : 48.0 KHz
Stream size : 368 MiB (24%)
Alignment : Split accross interleaves
Interleave, duration : 42 ms (1.00 video frame)
Interleave, preload duration : 500 ms

Скриншот c названием фильма

Скриншоты

[Профиль] [ЛС]
Показать сообщения:    

Текущее время: Сегодня 18:48

Часовой пояс: GMT



Вы не можете начинать темы
Вы не можете отвечать на сообщения
Вы не можете редактировать свои сообщения
Вы не можете удалять свои сообщения
Вы не можете голосовать в опросах
Вы не можете прикреплять файлы к сообщениям
Вы не можете скачивать файлы