Идеальный голос 2 / Pitch Perfect 2 (Элизабет Бэнкс) [2015, комедия, музыка] HDRip *PROPER* | L

 
Автор Сообщение

BOSS ®

Пол:

Стаж: 2 года 1 месяц

Сообщений: 3713

Откуда: ODESSA



Награды: 20 (Подробнее)

Mega Seeder 5 (Количество: 1) Top Releaser 2 (Количество: 1) Mega Seeder 4 (Количество: 1)
Торрент-статистика

Создавать темы 04-Авг-2015 13:54

[Цитировать]

Информация о фильме
Название: Идеальный голос 2
Оригинальное название: Pitch Perfect 2
Год выхода: 2015
Жанр: комедия, музыка
Режиссер: Элизабет Бэнкс
В ролях: Анна Кендрик, Ребел Уилсон, Хейли Стайнфелд, Бриттани Сноу, Скайлар Эстин, Адам Дивайн, Кэти Сагал, Анна Кэмп, Бен Платт, Алексис Нэп
О фильме:
Самые крутые девчонки возвращаются! Теперь у них все по-взрослому: ремиксы — моднее, каблуки — выше, юбки — короче. Но идеальный голос всегда на месте.


Выпущено: США / Brownstone Productions, Gold Circle Films, Universal Pictures
Продолжительность: 01:54:38
Озвучивание: Любительское (многоголосое) [Причудики]
Примечание: PROPER - замена рипов с косячного буржуйского BDRip у которых наблюдался стопкадр после 01:23:09!
Файл
Формат: AVI (XviD)
Качество: HDRip [рип с BDRip 720p]
Видео: 1904 kb/s, 720x384
Звук: Russian: MP3, 192 kb/s (2 ch) / English: AC3, 448 kb/s (6 ch)
Размер: 2100 MB
Скачать: Сэмпл---

Media Info

General
Complete name : C:UsersuserDesktopGolos.2.2015.MVO.HDRip.2100Mb.PROPER.avi
Format : AVI
Format/Info : Audio Video Interleave
Format profile : OpenDML
File size : 2.05 GiB
Duration : 1h 54mn
Overall bit rate : 2 562 Kbps
Writing application : VirtualDubMod 1.5.10.2 (build 2540/release)
Writing library : VirtualDubMod build 2540/release
Video
ID : 0
Format : MPEG-4 Visual
Format profile : Advanced Simple@L5
Format settings, BVOP : 2
Format settings, QPel : No
Format settings, GMC : No warppoints
Format settings, Matrix : Default (MPEG)
Codec ID : XVID
Codec ID/Hint : XviD
Duration : 1h 54mn
Bit rate : 1 904 Kbps
Width : 720 pixels
Height : 384 pixels
Display aspect ratio : 1.85:1
Frame rate : 23.976 fps
Color space : YUV
Chroma subsampling : 4:2:0
Bit depth : 8 bits
Scan type : Progressive
Compression mode : Lossy
Bits/(Pixel*Frame) : 0.287
Stream size : 1.53 GiB (74%)
Writing library : XviD 1.2.1 (UTC 2008-12-04)
Audio #1
ID : 1
Format : MPEG Audio
Format version : Version 1
Format profile : Layer 3
Mode : Joint stereo
Mode extension : MS Stereo
Codec ID : 55
Codec ID/Hint : MP3
Duration : 1h 54mn
Bit rate mode : Constant
Bit rate : 192 Kbps
Channel(s) : 2 channels
Sampling rate : 48.0 KHz
Compression mode : Lossy
Stream size : 158 MiB (7%)
Alignment : Aligned on interleaves
Interleave, duration : 42 ms (1.00 video frame)
Interleave, preload duration : 504 ms
Audio #2
ID : 2
Format : AC-3
Format/Info : Audio Coding 3
Mode extension : CM (complete main)
Format settings, Endianness : Big
Codec ID : 2000
Duration : 1h 54mn
Bit rate mode : Constant
Bit rate : 448 Kbps
Channel(s) : 6 channels
Channel positions : Front: L C R, Side: L R, LFE
Sampling rate : 48.0 KHz
Bit depth : 16 bits
Compression mode : Lossy
Stream size : 368 MiB (17%)
Alignment : Split accross interleaves
Interleave, duration : 42 ms (1.00 video frame)
Interleave, preload duration : 500 ms
--- --- -

Скриншоты

-
[Профиль] [ЛС]
Показать сообщения:    

Текущее время: Сегодня 14:02

Часовой пояс: GMT



Вы не можете начинать темы
Вы не можете отвечать на сообщения
Вы не можете редактировать свои сообщения
Вы не можете удалять свои сообщения
Вы не можете голосовать в опросах
Вы не можете прикреплять файлы к сообщениям
Вы не можете скачивать файлы