Игрок / The Gambler (Руперт Уайатт)[2014,триллер, драма, криминал] BDRip-AVC | Лицензия

 
Автор Сообщение

adeei ®

Пол:

Стаж: 1 год 8 месяцев

Сообщений: 63

Откуда: Россия Иваново



Награды: 3 (Подробнее)

Mega Seeder 3 (Количество: 1) Mega Seeder 1 (Количество: 1) Mega Seeder 2 (Количество: 1)
Торрент-статистика

Создавать темы 02-Апр-2015 15:36

[Цитировать]

Игрок / The Gambler«Ставок больше нет» Год выпуска: 2014
Жанр: триллер, драма, криминал
Выпущено: США
Продолжительность: 01:50:58
Перевод: Дублированный - [Лицензия]
Субтитры: русские, украинские, английские
Навигация по главам(Чаптеры): есть-Режиссер: Руперт Уайатт-В ролях: Марк Уолберг , Джон Гудман , Бри Ларсон , Майкл Кеннет Уильямс , Джессика Лэнг , Гриффин Кливлэнд , Омар Лейва , Энтони Келли , Стив Парк , Эмори Коэн , Джордж Кеннеди , Чил Конг -Описание: Джим Беннетт - рисковый парень. Днем он - гениальный писатель и отличный преподаватель, ночью - заядлый игрок. Он глубоко увяз в мире, где закон - пустой звук, и однажды ставит на кон все, включая собственную жизнь. Те, кому он должен, опасны, а помочь ему может только тот, кто еще опаснее.
Достоин ли второго шанса человек, проигравший самого себя? А, если да, то - во сколько это ему обойдется?
- -Качество: BDRip-AVC
Формат: AVC (библиотека кодирования x.264)
Контейнер (Расширение): MKV
Видео: 960x400 (2.40:1), 1743 Кбит/сек, 23,976 кадр/сек, 0,189 Бит/[Пиксели*Кадры]
Аудио №1: русский / AC3 / 5.1 / 48 kHz / 448 kbps / |Дублированный|
Аудио №2: английский / AC3 / 5.1 / 48 kHz / 448 kbps /-

MediaInfo

Format : Matroska
Format version : Version 2
File size : 2.05 GiB
Duration : 1h 50mn
Overall bit rate : 2 641 Kbps
Movie name : The Gambler.(2014).BDRip-AVC.[denis100]
Encoded date : UTC 2015-04-02 12:04:02
Writing application : mkvmerge v5.8.0 ('No Sleep / Pillow') built on Sep 2 2012 15:37:04
Writing library : libebml v1.2.3 + libmatroska v1.3.0
Video
ID : 1
Format : AVC
Format/Info : Advanced Video Codec
Format profile : High@L4.1
Format settings, CABAC : Yes
Format settings, ReFrames : 11 frames
Codec ID : V_MPEG4/ISO/AVC
Duration : 1h 50mn
Bit rate : 1 743 Kbps
Width : 960 pixels
Height : 400 pixels
Display aspect ratio : 2.40:1
Frame rate : 23.976 fps
Color space : YUV
Chroma subsampling : 4:2:0
Bit depth : 8 bits
Scan type : Progressive
Bits/(Pixel*Frame) : 0.189
Stream size : 1.31 GiB (64%)
Title : The Gambler.(2014).BDRip-AVC.[denis100]
Writing library : x264 core 146 r2538 121396c
Encoding settings : cabac=1 / ref=11 / deblock=1:-3:-3 / analyse=0x3:0x133 / me=umh / subme=11 / psy=1 / psy_rd=1.00:0.00 / mixed_ref=1 / me_range=32 / chroma_me=1 / trellis=2 / 8x8dct=1 / cqm=0 / deadzone=21,11 / fast_pskip=0 / chroma_qp_offset=-2 / threads=6 / lookahead_threads=1 / sliced_threads=0 / nr=0 / decimate=1 / interlaced=0 / bluray_compat=0 / constrained_intra=0 / bframes=7 / b_pyramid=2 / b_adapt=2 / b_bias=0 / direct=3 / weightb=1 / open_gop=0 / weightp=2 / keyint=240 / keyint_min=23 / scenecut=40 / intra_refresh=0 / rc=2pass / mbtree=0 / bitrate=1743 / ratetol=1.0 / qcomp=0.60 / qpmin=0 / qpmax=69 / qpstep=4 / cplxblur=20.0 / qblur=0.5 / ip_ratio=1.40 / pb_ratio=1.30 / aq=1:1.00
Language : English
Default : Yes
Forced : No
Audio #1
ID : 2
Format : AC-3
Format/Info : Audio Coding 3
Mode extension : CM (complete main)
Codec ID : A_AC3
Duration : 1h 50mn
Bit rate mode : Constant
Bit rate : 448 Kbps
Channel(s) : 6 channels
Channel positions : Front: L C R, Side: L R, LFE
Sampling rate : 48.0 KHz
Bit depth : 16 bits
Compression mode : Lossy
Stream size : 356 MiB (17%)
Title : Дублированный, Blu-ray CEE
Language : Russian
Default : Yes
Forced : No
Audio #2
ID : 3
Format : AC-3
Format/Info : Audio Coding 3
Mode extension : CM (complete main)
Codec ID : A_AC3
Duration : 1h 50mn
Bit rate mode : Constant
Bit rate : 448 Kbps
Channel(s) : 6 channels
Channel positions : Front: L C R, Side: L R, LFE
Sampling rate : 48.0 KHz
Bit depth : 16 bits
Compression mode : Lossy
Stream size : 356 MiB (17%)
Language : English
Default : No
Forced : No
Text #1
ID : 4
Format : UTF-8
Codec ID : S_TEXT/UTF8
Codec ID/Info : UTF-8 Plain Text
Language : Russian
Default : No
Forced : No
Text #2
ID : 5
Format : UTF-8
Codec ID : S_TEXT/UTF8
Codec ID/Info : UTF-8 Plain Text
Language : Ukrainian
Default : No
Forced : No
Text #3
ID : 6
Format : UTF-8
Codec ID : S_TEXT/UTF8
Codec ID/Info : UTF-8 Plain Text
Language : English
Default : No
Forced : No
Menu
00:00:00.000 : en:Chapter 1
00:08:21.375 : en:Chapter 2
00:16:46.422 : en:Chapter 3
00:25:22.020 : en:Chapter 4
00:29:16.254 : en:Chapter 5
00:34:09.422 : en:Chapter 6
00:45:08.455 : en:Chapter 7
00:51:00.515 : en:Chapter 8
00:59:08.336 : en:Chapter 9
01:06:22.728 : en:Chapter 10
01:12:39.229 : en:Chapter 11
01:21:58.663 : en:Chapter 12
01:24:17.093 : en:Chapter 13
01:31:11.757 : en:Chapter 14
01:35:35.563 : en:Chapter 15
01:46:04.441 : en:Chapter 16

x264

x264 [info]: frame I:1556 Avg QP:10.75 size: 65795
x264 [info]: frame P:34368 Avg QP:13.73 size: 18611
x264 [info]: frame B:123724 Avg QP:15.39 size: 5729

Скриншоты

-
[Профиль] [ЛС]
Показать сообщения:    

Текущее время: Сегодня 22:33

Часовой пояс: GMT



Вы не можете начинать темы
Вы не можете отвечать на сообщения
Вы не можете редактировать свои сообщения
Вы не можете удалять свои сообщения
Вы не можете голосовать в опросах
Вы не можете прикреплять файлы к сообщениям
Вы не можете скачивать файлы