Игроки: Прирожденный игрок / The Gamers: Natural One [01 из 03] (2014) WEBRip 1080p от BTT-TEAM и SOUND-GROUP | L2

 
Автор Сообщение

Белочка ®

Пол:

Стаж: 5 лет 1 месяц

Сообщений: 2089



Награды: 1 (Подробнее)

Girls (Количество: 1)
Торрент-статистика

Создавать темы 01-Дек-2014 21:53

[Цитировать]

Игроки: Прирожденный игрок / The Gamers: Natural One
Страна: США
Жанр: комедия, фэнтези, приключения
Год выпуска: 2014
Продолжительность: 3 серии по 8-10мин
Перевод: Любительский (двухголосый закадровый)
Cубтитры: Русские
Оригинальная аудиодорожка: Английский
Режиссер: Thomas Roper-Brown / Томас Ропер-Браун, Мэтт Вансил / Matt Vancil
В ролях:
Cristian Doyle / Кристиан Дойл - Гари
Monica Zelak / Моника Зелак - Моника
Thomas Gofton / Томас Гофтон - Харпер
Scott C. Brown / Скотт С. Браун - Лео
Daniel Bradford / Дэниэл Брэдфорд - Раен
Описание: Гари и Лео отправляються в Канаду, чтобы проверить достоин ли жених сестры Гарри, Моники, ее руки и звания игрока. Для чего они сыграют в смертельную научно-фантастическую, ролевую- фэнтези игру Киберпобег.
Релиз группы:Релиз группы: и
Доп. информация: Перевод: Ash, Редакция: Ленка(ФСГ"Альянс")
Озвучивание Ворон и Wenlana
Смотреть обязательно с форсированными субтитрами
Прежде чем качать видео и комментировать, скачайте сэмпл и послушайте!

Качество видео: WEBRip 1080p - Сэмпл
Формат видео: MKV
Видео: AVC, 1920 x 1080 (16:9), 23.976 fps, 2155 Kbps avg, 0.043 bit/pixel
Аудио: 48 kHz, AC3 Dolby Digital, 2/0 (L,R) ch, ~224 kbps (Русский)
Аудио 2: 48 kHz, AC3 Dolby Digital, 2/0 (L,R) ch, ~224 kbps (Английский)
Формат субтитров: [форсированный(надписи) / полные]softsub (ass)

Скриншоты

MediaInfo

Формат : Matroska
Версия формата : Version 2
Размер файла : 174 Мбайт
Продолжительность : 9 м. 11 с.
Общий поток : 2656 Кбит/сек
Дата кодирования : UTC 2014-12-01 14:07:35
Программа кодирования : mkvmerge v7.2.0 ('On Every Street') 32bit built on Sep 13 2014 15:42:11
Библиотека кодирования : libebml v1.3.0 + libmatroska v1.4.1
DURATION : 00:00:06.310000000
NUMBER_OF_FRAMES : 2
NUMBER_OF_BYTES : 133
_STATISTICS_WRITING_APP : mkvmerge v7.2.0 ('On Every Street') 32bit built on Sep 13 2014 15:42:11
_STATISTICS_WRITING_DATE_UTC : 2014-12-01 14:07:35
_STATISTICS_TAGS : BPS DURATION NUMBER_OF_FRAMES NUMBER_OF_BYTES
Видео
Идентификатор : 1
Формат : AVC
Формат/Информация : Advanced Video Codec
Профиль формата : High@L4.0
Параметр CABAC формата : Да
Параметр ReFrames формата : 3 кадра
Идентификатор кодека : V_MPEG4/ISO/AVC
Продолжительность : 9 м. 11 с.
Битрейт : 2155 Кбит/сек
Ширина : 1920 пикселей
Высота : 1080 пикселей
Соотношение сторон : 16:9
Режим частоты кадров : Постоянный
Частота кадров : 23,976 кадра/сек
Цветовое пространство : YUV
Субдискретизация насыщенности : 4:2:0
Битовая глубина : 8 бит
Тип развёртки : Прогрессивная
Бит/(Пиксели*Кадры) : 0.043
Размер потока : 142 Мбайт (81%)
Default : Да
Forced : Нет
Аудио #1
Идентификатор : 2
Формат : AC-3
Формат/Информация : Audio Coding 3
Расширение режима : CM (complete main)
Параметр Endianness формата : Big
Идентификатор кодека : A_AC3
Продолжительность : 9 м. 11 с.
Вид битрейта : Постоянный
Битрейт : 224 Кбит/сек
Каналы : 2 канала
Расположение каналов : Front: L R
Частота : 48,0 КГц
Битовая глубина : 16 бит
Метод сжатия : С потерями
Размер потока : 14,7 Мбайт (8%)
Заголовок : Ворон и Wenlana
Язык : Russian
Default : Да
Forced : Нет
Аудио #2
Идентификатор : 3
Формат : AC-3
Формат/Информация : Audio Coding 3
Расширение режима : CM (complete main)
Параметр Endianness формата : Big
Идентификатор кодека : A_AC3
Продолжительность : 9 м. 11 с.
Вид битрейта : Постоянный
Битрейт : 224 Кбит/сек
Каналы : 2 канала
Расположение каналов : Front: L R
Частота : 48,0 КГц
Битовая глубина : 16 бит
Метод сжатия : С потерями
Размер потока : 14,7 Мбайт (8%)
Заголовок : Original
Язык : English
Default : Нет
Forced : Нет
Текст #1
Идентификатор : 4
Формат : ASS
Идентификатор кодека : S_TEXT/ASS
Идентификатор кодека/Информация : Advanced Sub Station Alpha
Метод сжатия : Без потерь
Заголовок : Форсированный на надписи
Язык : Russian
Default : Да
Forced : Да
Текст #2
Идентификатор : 5
Формат : ASS
Идентификатор кодека : S_TEXT/ASS
Идентификатор кодека/Информация : Advanced Sub Station Alpha
Метод сжатия : Без потерь
Заголовок : Перевод: Ash, Редакция: Ленка
Язык : Russian
Default : Нет
Forced : Нет
[Профиль] [ЛС]
Показать сообщения:    

Текущее время: Сегодня 14:01

Часовой пояс: GMT



Вы не можете начинать темы
Вы не можете отвечать на сообщения
Вы не можете редактировать свои сообщения
Вы не можете удалять свои сообщения
Вы не можете голосовать в опросах
Вы не можете прикреплять файлы к сообщениям
Вы не можете скачивать файлы