Игра / The Game (1997) BDRip 1080p

 
Автор Сообщение

sergej644 ®

Пол:

Стаж: 4 года 11 месяцев

Сообщений: 6046

Откуда: Soviet Union



Награды: Нет

Торрент-статистика

Создавать темы 21-Янв-2015 00:43

[Цитировать]

--Игра / The GameГод выпуска: 1997
Страна: США
Производство: A&B Producoes, Lda., PolyGram Filmed Entertainment, Propaganda Films
Слоган: «Вы готовы играть?»
Жанр: триллер, драма, детектив, приключения
Продолжительность: 02:08:48
Перевод:
Профессиональный (полное дублирование) DVD-Group, ремастер Позитив-Мультимедиа
Профессиональный (многоголосый, закадровый) Позитив-Мультимедиа, Blu-ray CEE
Профессиональный (многоголосый, закадровый) 1 канал
Профессиональный (двухголосый) Liga HQ
Профессиональный (двухголосый) Союз Видео
Профессиональный (двухголосый) НТВ+
Профессиональный (двухголосый) РЕН ТВ
Авторский (Андрей Гаврилов)
Авторский (Юрий Живов)
Субтитры: Русские, английские-Режиссер: Дэвид Финчер / David Fincher
Сценарий: Джон Д. Бранкато / John D. Brancato, Майкл Феррис / Michael Ferris
Продюсер: Сиан Чаффин / Ceán Chaffin, Стив Голин / Steve Golin, Джонатан Мостоу / Jonathan Mostow, Джон Д. Бранкато / John D. Brancato, Майкл Феррис / Michael Ferris
Оператор: Харрис Савидис / Harris Savides
Композитор: Говард Шор / Howard Shore-В ролях: Майкл Дуглас (Nicholas Van Orton), Шон Пенн (Conrad Van Orton), Дебора Кара Ангер (Christine), Джеймс Ребхорн (Jim Feingold), Питер Донат (Samuel Sutherland), Кэррол Бейкер (Ilsa), Анна Катарина (Elizabeth), Армин Мюллер-Шталь (Anson Baer), Чарльз Мартине (Nicholas' Father), Юдзи Окумото (Nikko Hotel Manager), Скотт Хантер МакГуайр (Young Nicholas), Флорентин Макану (Nicholas' Mother)
Дублёры: Владимир Еремин (Nicholas Van Orton), Всеволод Кузнецов (Conrad Van Orton), Ольга Плетнёва (Christine), Владимир Антоник (Jim Feingold), Рогволд Суховерко (Samuel Sutherland), Александра Назарова (Ilsa), Ольга Голованова (Elizabeth; Christine's Roomate Amy), Вадим Захарченко (Anson Baer), Андрей Бархударов (Nikko Hotel Manager), Елена Соловьева (Maria), Виктор Петров (Daniel Schorr), Людмила Шувалова (Cynthia, CRS Receptionist)-Бюджет: $50 000 000
Сборы в США: $48 323 648
Сборы в мире: $109 423 648
Мировая премьера: 12 сентября 1997
Релиз на DVD: 1 июня 1998, «AMALGAMA»
Релиз на Blu-ray: 17 августа 2010, «Юниверсал Пикчерс Рус»-Описание: Николас Ван Ортон - само воплощение успеха. Он преуспевает, он невозмутим и спокоен, привык держать любую ситуацию под контролем. На день рождения Николас получает необычный подарок - билет для участия в «Игре».
Ему обещают, что игра вернет яркие чувства, позволит ощутить вкус и остроту жизни. Вступив в игру, Николас начинает осознавать, что это игра всерьез, игра не на жизнь, а на смерть.-Рейтинг:

MPAA: R - Лицам до 17 лет обязательно присутствие взрослого-Видеоряд от WiKi.
Сборка рипа - pan29.
Формат: Matroska
Видео: 1920x800 at 23,976 fps, x264@L4.1 ~11.4 Mbps
Аудио #1: Russian: 48 kHz, DTS, 3/2 (L,C,R,l,r) + LFE ch, ~768 kbps avg |Многоголосый закадровый, Позитив-Мультимедиа, Blu-ray CEE|
Аудио #2: Russian: 48 kHz, AC3, 3/2 (L,C,R,l,r) + LFE ch, ~384 kbps avg |Дубляж, DVD-Group, ремастер Позитив-Мультимедиа|
Аудио #3: Russian: 48 kHz, AC3, 3/2 (L,C,R,l,r) + LFE ch, ~384 kbps avg |Двухголосый закадровый, Liga HQ|
Аудио #4: Russian: 48 kHz, AC3, 2/0 (L,R) ch, ~224 kbps avg |Двухголосый закадровый, Союз Видео|
Аудио #5: Russian: 48 kHz, AC3, 2/0 (L,R) ch, ~224 kbps avg |Двухголосый закадровый, НТВ+|
Аудио #6: Russian: 48 kHz, AC3, 2/0 (L,R) ch, ~192 kbps avg |Двухголосый закадровый, РЕН ТВ|
Аудио #7: Russian: 48 kHz, AC3, 2/0 (L,R) ch, ~192 kbps avg |Многоголосый закадровый, 1 канал|
Аудио #8: Russian: 48 kHz, DTS, 3/2 (L,C,R,l,r) + LFE ch, ~1509 kbps avg |Авторский, А.Гаврилов, поздний|
Аудио #9: Russian: 48 kHz, AC3, 2/0 (L,R) ch, ~192 kbps avg |Авторский, А.Гаврилов, ранний|
Аудио #10: Russian: 48 kHz, DTS, 3/2 (L,C,R,l,r) + LFE ch, ~1509 kbps avg |Авторский, Ю.Живов|
Аудио #11: English: 48 kHz, DTS, 3/2 (L,C,R,l,r) + LFE ch, ~1509 kbps avg |Original, Theatrical Mix, Blu-ray disc Criterion Collection|
Аудио #12: English: 48 kHz, DTS, 3/2 (L,C,R,l,r) + LFE ch, ~1509 kbps avg |Original, Near Field Mix, Blu-ray disc Criterion Collection|
Аудио #13: English: 48 kHz, AC3, 2/0 (L,R) ch, ~128 kbps avg |Commentary, DVD|
Аудио #14: English: 48 kHz, AC3, 1 ch, ~192 kbps avg |Commentary, Blu-ray disc Criterion Collection|-

Знаете ли Вы, что...

Главный герой носит золотые часы Cartier Tank с боковой секундной стрелкой.
Джоди Фостер, сыгравшая главную роль в фильме Финчера «Комната страха», планировала принять участие в съёмках Игры, но не смогла из-за плотного рабочего графика.
Спайк Джонс сыграл камео медработника, светящего в глаз Николаса в конце фильма.
Дэвид Финчер сообщил в интервью английскому журналу Empire, что в каждой сцене фильма присутствует телячий рубец (англ. haggis). Это связано с прозвищем оператора фильма Савидиса Харриса - Haggis.
Когда Николас входит в комнату отеля Nikko, в телевизоре можно увидеть кадры из порно-фильма с участием известного порно-актёра Тони Тедески.
Сюжет фильма основан на реально существующей ролевой игре, популярной в США. Идея этой игры проистекает из фильма 1980 года «Полуночное безумие» (Midnight Madness). В «Игре» также можно найти реминисценции из романа Джона Фаулза «Волхв».
Кроме «настоящей» расшифровки аббревиатуры CRS (Consumer Recreation Services), в фильме ещё встречаются и другие. Это карточка на приборной панели мчащегося такси, в котором едет Николас (California Regal Sedans) и надпись на фургоне, припаркованном у дома Кристин, откуда потом вооруженные люди открывают стрельбу по зданию (Cable Repair Specialists).
Когда главный герой хочет вызвать скорую, он берет телефон и говорит «батарейка села», позвонить не удается. В лифте уже у него телефон работает, т. к. он достает телефон и говорит фразу «Сеть не ловит».

MI

General
Unique ID : 184156065882622161560344656667211150380 (0x8A8B2B0D587F1EE5B8DC5B1F95F7342C)
Complete name : The.Game.1997.BDRip.1080p.Criterion.Collection-WiKi.mkv
Format : Matroska
Format version : Version 4 / Version 2
File size : 18.3 GiB
Duration : 2h 8mn
Overall bit rate : 20.4 Mbps
Movie name : The.Game.1997
Encoded date : UTC 2013-12-02 15:20:04
Writing application : mkvmerge v6.2.0 ('Promised Land') built on Apr 28 2013 12:22:01
Writing library : libebml v1.3.0 + libmatroska v1.4.0
Video
ID : 1
Format : AVC
Format/Info : Advanced Video Codec
Format profile : High@L4.1
Format settings, CABAC : Yes
Format settings, ReFrames : 4 frames
Codec ID : V_MPEG4/ISO/AVC
Bit rate : 11.4 Mbps
Width : 1 920 pixels
Height : 800 pixels
Display aspect ratio : 2.40:1
Frame rate mode : Variable
Original frame rate : 23.976 fps
Color space : YUV
Chroma subsampling : 4:2:0
Bit depth : 8 bits
Scan type : Progressive
Bits/(Pixel*Frame) : 0.310
Title : The.Game.1997.BDRip.1080p.Criterion.Collection-WiKi
Writing library : x264 core 125 r2200 999b753
Encoding settings : cabac=1 / ref=4 / deblock=1:-3:-3 / analyse=0x3:0x113 / me=umh / subme=10 / psy=1 / psy_rd=1.10:0.00 / mixed_ref=1 / me_range=32 / chroma_me=1 / trellis=2 / 8x8dct=1 / cqm=0 / deadzone=21,11 / fast_pskip=0 / chroma_qp_offset=-4 / threads=12 / lookahead_threads=2 / sliced_threads=0 / nr=0 / decimate=0 / interlaced=0 / bluray_compat=0 / constrained_intra=0 / bframes=10 / b_pyramid=2 / b_adapt=2 / b_bias=0 / direct=3 / weightb=1 / open_gop=0 / weightp=2 / keyint=250 / keyint_min=23 / scenecut=40 / intra_refresh=0 / rc_lookahead=48 / rc=2pass / mbtree=1 / bitrate=11434 / ratetol=1.0 / qcomp=0.60 / qpmin=0 / qpmax=69 / qpstep=4 / cplxblur=20.0 / qblur=0.5 / ip_ratio=1.40 / aq=1:0.80
Language : English
Default : Yes
Forced : No
Audio #1
ID : 2
Format : DTS
Format/Info : Digital Theater Systems
Mode : 16
Format settings, Endianness : Big
Codec ID : A_DTS
Duration : 2h 8mn
Bit rate mode : Constant
Bit rate : 768 Kbps
Channel(s) : 6 channels
Channel positions : Front: L C R, Side: L R, LFE
Sampling rate : 48.0 KHz
Bit depth : 24 bits
Compression mode : Lossy
Stream size : 708 MiB (4%)
Title : MVO (Pozitiv-Mul'timedia, Blu-ray CEE) [DTS Audio, 768 Kbps, 48 kHz, 6 ch, 24-bit]
Language : Russian
Default : Yes
Forced : No
Audio #2
ID : 3
Format : AC-3
Format/Info : Audio Coding 3
Mode extension : CM (complete main)
Format settings, Endianness : Big
Codec ID : A_AC3
Duration : 2h 8mn
Bit rate mode : Constant
Bit rate : 384 Kbps
Channel(s) : 6 channels
Channel positions : Front: L C R, Side: L R, LFE
Sampling rate : 48.0 KHz
Bit depth : 16 bits
Compression mode : Lossy
Stream size : 354 MiB (2%)
Title : Dub (DVD-Group, remaster Pozitiv-Mul'timedia) [AC3, 384 Kbps, 48 kHz, 6 ch]
Language : Russian
Default : No
Forced : No
Audio #3
ID : 4
Format : AC-3
Format/Info : Audio Coding 3
Mode extension : CM (complete main)
Format settings, Endianness : Big
Codec ID : A_AC3
Duration : 2h 8mn
Bit rate mode : Constant
Bit rate : 384 Kbps
Channel(s) : 6 channels
Channel positions : Front: L C R, Side: L R, LFE
Sampling rate : 48.0 KHz
Bit depth : 16 bits
Compression mode : Lossy
Stream size : 354 MiB (2%)
Title : MVO (Liga HQ) [AC3, 384 Kbps, 48 kHz, 6 ch]
Language : Russian
Default : No
Forced : No
Audio #4
ID : 5
Format : AC-3
Format/Info : Audio Coding 3
Mode extension : CM (complete main)
Format settings, Endianness : Big
Codec ID : A_AC3
Duration : 2h 8mn
Bit rate mode : Constant
Bit rate : 224 Kbps
Channel(s) : 2 channels
Channel positions : Front: L R
Sampling rate : 48.0 KHz
Bit depth : 16 bits
Compression mode : Lossy
Stream size : 206 MiB (1%)
Title : DVO (Soyuz Video) [AC3, 224 Kbps, 48 kHz, 2 ch]
Language : Russian
Default : No
Forced : No
Audio #5
ID : 6
Format : AC-3
Format/Info : Audio Coding 3
Mode extension : CM (complete main)
Format settings, Endianness : Big
Codec ID : A_AC3
Duration : 2h 8mn
Bit rate mode : Constant
Bit rate : 224 Kbps
Channel(s) : 2 channels
Channel positions : Front: L R
Sampling rate : 48.0 KHz
Bit depth : 16 bits
Compression mode : Lossy
Stream size : 206 MiB (1%)
Title : DVO (NTV+) [AC3, 224 Kbps, 48 kHz, 2 ch]
Language : Russian
Default : No
Forced : No
Audio #6
ID : 7
Format : AC-3
Format/Info : Audio Coding 3
Mode extension : CM (complete main)
Format settings, Endianness : Big
Codec ID : A_AC3
Duration : 2h 8mn
Bit rate mode : Constant
Bit rate : 192 Kbps
Channel(s) : 2 channels
Channel positions : Front: L R
Sampling rate : 48.0 KHz
Bit depth : 16 bits
Compression mode : Lossy
Stream size : 177 MiB (1%)
Title : DVO (Ren TV) [AC3, 192 Kbps, 48 kHz, 2 ch]
Language : Russian
Default : No
Forced : No
Audio #7
ID : 8
Format : AC-3
Format/Info : Audio Coding 3
Mode extension : CM (complete main)
Format settings, Endianness : Big
Codec ID : A_AC3
Duration : 2h 8mn
Bit rate mode : Constant
Bit rate : 192 Kbps
Channel(s) : 2 channels
Channel positions : Front: L R
Sampling rate : 48.0 KHz
Bit depth : 16 bits
Compression mode : Lossy
Delay relative to video : 1s 344ms
Stream size : 177 MiB (1%)
Title : MVO (1 kanal) [AC3, 192 Kbps, 48 kHz, 2 ch]
Language : Russian
Default : No
Forced : No
Audio #8
ID : 9
Format : DTS
Format/Info : Digital Theater Systems
Mode : 16
Format settings, Endianness : Big
Codec ID : A_DTS
Duration : 2h 8mn
Bit rate mode : Constant
Bit rate : 1 509 Kbps
Channel(s) : 6 channels
Channel positions : Front: L C R, Side: L R, LFE
Sampling rate : 48.0 KHz
Bit depth : 24 bits
Compression mode : Lossy
Delay relative to video : 1s 344ms
Stream size : 1.36 GiB (7%)
Title : AVO (Gavrilov, pozdnii) [DTS Audio, 1510 Kbps, 48 kHz, 6 ch, 24-bit] / core DTS-HD Master Audio
Language : Russian
Default : No
Forced : No
Audio #9
ID : 10
Format : AC-3
Format/Info : Audio Coding 3
Mode extension : CM (complete main)
Format settings, Endianness : Big
Codec ID : A_AC3
Duration : 2h 8mn
Bit rate mode : Constant
Bit rate : 192 Kbps
Channel(s) : 2 channels
Channel positions : Front: L R
Sampling rate : 48.0 KHz
Bit depth : 16 bits
Compression mode : Lossy
Delay relative to video : 1s 344ms
Stream size : 177 MiB (1%)
Title : AVO (Gavrilov, rannii) [AC3, 192 Kbps, 48 kHz, 2 ch]
Language : Russian
Default : No
Forced : No
Audio #10
ID : 11
Format : DTS
Format/Info : Digital Theater Systems
Mode : 16
Format settings, Endianness : Big
Codec ID : A_DTS
Duration : 2h 8mn
Bit rate mode : Constant
Bit rate : 1 509 Kbps
Channel(s) : 6 channels
Channel positions : Front: L C R, Side: L R, LFE
Sampling rate : 48.0 KHz
Bit depth : 24 bits
Compression mode : Lossy
Delay relative to video : 1s 344ms
Stream size : 1.36 GiB (7%)
Title : AVO (Jivov) [DTS Audio, 1510 Kbps, 48 kHz, 6 ch, 24-bit] / core DTS-HD Master Audio
Language : Russian
Default : No
Forced : No
Audio #11
ID : 12
Format : DTS
Format/Info : Digital Theater Systems
Mode : 16
Format settings, Endianness : Big
Codec ID : A_DTS
Duration : 2h 8mn
Bit rate mode : Constant
Bit rate : 1 509 Kbps
Channel(s) : 6 channels
Channel positions : Front: L C R, Side: L R, LFE
Sampling rate : 48.0 KHz
Bit depth : 24 bits
Compression mode : Lossy
Delay relative to video : 1s 344ms
Stream size : 1.36 GiB (7%)
Title : Original (Theatrical Mix, originally designed Criterion) [DTS Audio, 1510 Kbps, 48 kHz, 6 ch, 24-bit] / core DTS-HD Master Audio
Language : English
Default : No
Forced : No
Audio #12
ID : 13
Format : DTS
Format/Info : Digital Theater Systems
Mode : 16
Format settings, Endianness : Big
Codec ID : A_DTS
Duration : 2h 8mn
Bit rate mode : Constant
Bit rate : 1 509 Kbps
Channel(s) : 6 channels
Channel positions : Front: L C R, Side: L R, LFE
Sampling rate : 48.0 KHz
Bit depth : 24 bits
Compression mode : Lossy
Delay relative to video : 1s 344ms
Stream size : 1.36 GiB (7%)
Title : Original (Near Field Mix, originally designed Criterion) [DTS Audio, 1510 Kbps, 48 kHz, 6 ch, 24-bit] / core DTS-HD Master Audio
Language : English
Default : No
Forced : No
Audio #13
ID : 14
Format : AC-3
Format/Info : Audio Coding 3
Mode extension : CM (complete main)
Format settings, Endianness : Big
Codec ID : A_AC3
Duration : 2h 8mn
Bit rate mode : Constant
Bit rate : 128 Kbps
Channel(s) : 2 channels
Channel positions : Front: L R
Sampling rate : 48.0 KHz
Bit depth : 16 bits
Compression mode : Lossy
Delay relative to video : 1s 344ms
Stream size : 118 MiB (1%)
Title : Commentary (DVD Pozitiv) [AC3, 128 Kbps, 48 kHz, 2 ch]
Language : English
Default : No
Forced : No
Audio #14
ID : 15
Format : AC-3
Format/Info : Audio Coding 3
Mode extension : CM (complete main)
Format settings, Endianness : Big
Codec ID : A_AC3
Duration : 2h 8mn
Bit rate mode : Constant
Bit rate : 192 Kbps
Channel(s) : 1 channel
Channel positions : Front: C
Sampling rate : 48.0 KHz
Bit depth : 16 bits
Compression mode : Lossy
Delay relative to video : 1s 344ms
Stream size : 177 MiB (1%)
Title : Commentary (Blu-ray disc Criterion Collection) [AC3, 192 Kbps, 48 kHz, 1 ch]
Language : English
Default : No
Forced : No
Text #1
ID : 16
Format : UTF-8
Codec ID : S_TEXT/UTF8
Codec ID/Info : UTF-8 Plain Text
Title : v.1 (DVD Pozitiv)
Language : Russian
Default : No
Forced : No
Text #2
ID : 17
Format : UTF-8
Codec ID : S_TEXT/UTF8
Codec ID/Info : UTF-8 Plain Text
Title : v.2
Language : Russian
Default : No
Forced : No
Text #3
ID : 18
Format : UTF-8
Codec ID : S_TEXT/UTF8
Codec ID/Info : UTF-8 Plain Text
Title : Full
Language : English
Default : No
Forced : No
Text #4
ID : 19
Format : UTF-8
Codec ID : S_TEXT/UTF8
Codec ID/Info : UTF-8 Plain Text
Title : SDH (Blu-ray disc Criterion Collection)
Language : English
Default : No
Forced : No
Text #5
ID : 20
Format : UTF-8
Codec ID : S_TEXT/UTF8
Codec ID/Info : UTF-8 Plain Text
Title : SDH (Blu-ray disc Criterion Collection) by CtrlHD
Language : English
Default : No
Forced : No
Text #6
ID : 21
Format : UTF-8
Codec ID : S_TEXT/UTF8
Codec ID/Info : UTF-8 Plain Text
Title : Commentary (DVD Pozitiv)
Language : English
Default : No
Forced : No
Text #7
ID : 22
Format : VobSub
Muxing mode : zlib
Codec ID : S_VOBSUB
Codec ID/Info : The same subtitle format used on DVDs
Title : VobSub Full (DVD Pozitiv)
Language : Russian
Default : No
Forced : No
Text #8
ID : 23
Format : VobSub
Muxing mode : zlib
Codec ID : S_VOBSUB
Codec ID/Info : The same subtitle format used on DVDs
Title : VobSub SDH (Blu-ray disc Criterion Collection)
Language : English
Default : No
Forced : No
Text #9
ID : 24
Format : VobSub
Muxing mode : zlib
Codec ID : S_VOBSUB
Codec ID/Info : The same subtitle format used on DVDs
Title : VobSub SDH (DVD Pozitiv)
Language : English
Default : No
Forced : No
Text #10
ID : 25
Format : VobSub
Muxing mode : zlib
Codec ID : S_VOBSUB
Codec ID/Info : The same subtitle format used on DVDs
Title : VobSub Commentary (DVD Pozitiv)
Language : English
Default : No
Forced : No
Menu
00:00:00.000 : en:Opening titles
00:01:06.275 : en:Birthday party
00:02:52.422 : en:“Happy birthday, sir”
00:05:51.851 : en:Profound life experience
00:09:27.734 : en:Forty-eight
00:13:41.738 : en:Consumer Recreation Services
00:17:54.365 : en:“Confused . . . risky . . . bloody . . . whoops”
00:20:52.543 : en:John 9:25
00:24:49.405 : en:“This is your Game, and welcome to it”
00:30:47.846 : en:Helping hand
00:34:00.538 : en:“Don’t let her get away”
00:43:13.508 : en:Czar Nicholas
00:51:09.984 : en:Guy in the gray flannel suit
00:53:55.816 : en:Hotel Nikko
00:59:11.339 : en:Toyed with by depraved children
01:04:56.392 : en:Nicholas Van Cocksucker
01:08:06.541 : en:Human piñata
01:12:31.556 : en:California Regal Sedans
01:15:57.803 : en:Motive
01:18:55.397 : en:Cable Repair Specialists
01:26:49.454 : en:Blue 2/9690D
01:33:56.422 : en:Entombed
01:37:29.927 : en:“Can I have your attention, please?”
01:42:23.095 : en:Trust Taggarene
01:45:14.016 : en:“I love your work”
01:48:25.791 : en:Pulling back the curtain
01:52:38.293 : en:“This is the Game”
01:59:28.119 : en:Cordially invited
02:03:44.250 : en:End credits

Скриншоты

-
[Профиль] [ЛС]
Показать сообщения:    

Текущее время: Сегодня 12:10

Часовой пояс: GMT



Вы не можете начинать темы
Вы не можете отвечать на сообщения
Вы не можете редактировать свои сообщения
Вы не можете удалять свои сообщения
Вы не можете голосовать в опросах
Вы не можете прикреплять файлы к сообщениям
Вы не можете скачивать файлы