Игра с огнем / Playing with Fire (Дэвид ДеКото / David DeCoteau) [2008, США, Триллер, TVRip] DVO НТВ+

 
Автор Сообщение

TorrentFilm ®

Пол:

Стаж: 2 года

Сообщений: 7741



Награды: Нет

Торрент-статистика

Создавать темы 02-Дек-2015 00:09

[Цитировать]

Игра с огнем / Playing with Fire
"В этой игре нет правил"
Страна: США
Жанр: Tриллер
Год выпуска: 2008
Продолжительность: 01:23:05
Перевод: Профессиональный (двухголосый закадровый) НТВ+
Cубтитры: нет
Режиссер: Дэвид ДеКото / David DeCoteau
В ролях: Келли Альбанезе, Сьюзэн Энтон, Майкл Бергин, Мэр Л. Костильо, Тревор Дьюк, Крис Формен, Сэм Гипсон, Блейк Худ, Кайл Джордан, Доминик Монтелеони
Описание: Богачка Дафна, избалованная отцовскими миллионами и пресыщенная всеми возможными удовольствиями, почти всё свое время проводит в элитном клубе со скандальной репутацией. Однажды здесь появляется новый посетитель - студент-медик Ник. К удивлению Дафны, парень в руки не дается, и это еще больше разжигает ее интерес. Она и ее дружки разрабатывают хитроумную схему обольщения, не подозревая, что сами стали частью тщательно продуманного коварного плана...
Доп. информация: Рип взят из ЕКС.УА
Сэмпл: https://yadi.sk/i/OKvM1XiwkiHRs
Качество видео: TVRip
Формат видео: AVI
Видео: 704x400 (1.76:1), 25 fps, XviD build 50 ~1303 kbps avg, 0.19 bit/pixel
Аудио: 48 kHz, MPEG Layer 3, 2 ch, ~128.00 kbps avg

MediaInfo

Игра с огнем - Playing with Fire 2008.IPTVRip.avi
Format : AVI
Format/Info : Audio Video Interleave
File size : 856 MiB
Duration : 1h 23mn
Overall bit rate : 1 441 Kbps
Writing application : VirtualDubMod 1.5.10.2 (build 2540/release)
Writing library : VirtualDubMod build 2540/release
Video
ID : 0
Format : MPEG-4 Visual
Format profile : Advanced Simple@L5
Format settings, BVOP : 1
Format settings, QPel : No
Format settings, GMC : No warppoints
Format settings, Matrix : Default (H.263)
Codec ID : XVID
Codec ID/Hint : XviD
Duration : 1h 23mn
Bit rate : 1 303 Kbps
Width : 704 pixels
Height : 400 pixels
Display aspect ratio : 16:9
Frame rate : 25.000 fps
Color space : YUV
Chroma subsampling : 4:2:0
Bit depth : 8 bits
Scan type : Progressive
Compression mode : Lossy
Bits/(Pixel*Frame) : 0.185
Stream size : 775 MiB (90%)
Writing library : XviD 1.2.1 (UTC 2008-12-04)
Audio
ID : 1
Format : MPEG Audio
Format version : Version 1
Format profile : Layer 3
Codec ID : 55
Codec ID/Hint : MP3
Duration : 1h 23mn
Bit rate mode : Constant
Bit rate : 128 Kbps
Channel(s) : 2 channels
Sampling rate : 48.0 KHz
Compression mode : Lossy
Stream size : 76.1 MiB (9%)
Alignment : Aligned on interleaves
Interleave, duration : 40 ms (1.00 video frame)
Interleave, preload duration : 504 ms
Writing library : LAME3.98r
Encoding settings : -m s -V 4 -q 2 -lowpass 17 -b 128

Скриншоты



[Профиль] [ЛС]

Создавать темы 12-Июн-2016 08:50 (спустя 6 месяцев 10 дней)

Топик был перенесен из форума Фильмы 2011 года в форум Фильмы 2006-2008 года
Russian Mafia
 
Кто просматривает тему:

Показать сообщения:    

Текущее время: Сегодня 00:41

Часовой пояс: GMT



Вы не можете начинать темы
Вы не можете отвечать на сообщения
Вы не можете редактировать свои сообщения
Вы не можете удалять свои сообщения
Вы не можете голосовать в опросах
Вы не можете прикреплять файлы к сообщениям
Вы не можете скачивать файлы