Игра смерти / Game of Death (Джорджо Серафини / Georgio Serafini) [2010, США, боевик, триллер, HDRip] [UNCUT] MVOx2, Eng

 
Автор Сообщение

TorrentFilm ®

Пол:

Стаж: 2 года

Сообщений: 7741



Награды: Нет

Торрент-статистика

Создавать темы 27-Июл-2015 00:02

[Цитировать]

Игра смерти / Game of Death / UNCUT
Страна: США
Жанр: боевик, триллер
Год выпуска: 2010
Продолжительность: 01:37:56
Перевод 1: Профессиональный (многоголосый закадровый) Кинопоказ
Перевод 2: Профессиональный (многоголосый закадровый) РенТВ
Cубтитры: нет
Оригинальная аудиодорожка: английский
Режиссер: Джорджо Серафини / Georgio Serafini
В ролях: Уэсли Снайпс, Зои Белл, Гэри Дэниелс, Роберт Дави, Саймон Ри, Ричард Готери, Владимир Тевловский, Ху Сунг Пак, Лэйдон Драммонд, Стэйси Хэдкости, Дарси Лейтзингер
Описание: Защищая видного дипломата, его личный телохранитель со своей командой оказываются c ранениями в больнице, где знакомятся с медсестрой под прикрытием. Они решают объединится, для обороны дипломата, но в дальнейшем медсестра понимает, что ситуация складывается совсем не так, как хотелось бы всем. Каждый из компании становится участником одной игры смерти.
Сэмпл: http://multi-up.com/1060133
Качество видео: HDRip (рип с немецкого BDRip 720p)
Формат видео: AVI
Видео: MPEG4, XviD, 720x304 (2.35:1), 23.976 fps, 1 341 Kbps (0.256 bit/pixel)
Аудио 1: AC-3, 48.0 KHz, 2 ch, 192 Kbps, CBR - Кинопоказ
Аудио 1: AC-3, 48.0 KHz, 2 ch, 192 Kbps, CBR - РенТВ
Аудио 3: AC-3, 48.0 KHz, 6 ch, 384 Kbps, CBR - английский

Скриншот c названием фильма

Скриншоты


MI

Общее
Полное имя : K:\МОИ РАЗДАЧИ\Игра смерти.avi
Формат : AVI
Формат/Информация : Audio Video Interleave
Размер файла : 1,46 Гбайт
Продолжительность : 1 ч. 37 м.
Общий поток : 2128 Кбит/сек
Название фильма : Игра смерти / Game of Death [Uncut] (2010)
Программа кодирования : VirtualDubMod 1.5.10.2 (build 2540/release)
Библиотека кодирования : VirtualDubMod build 2540/release
Авторское право : miha2154
Видео
Идентификатор : 0
Формат : MPEG-4 Visual
Профиль формата : Advanced Simple@L5
Параметр BVOP формата : 1
Параметр QPel формата : Нет
Параметр GMC формата : Без точки перехода
Параметр матрицы формата : Выборочная
Идентификатор кодека : XVID
Идентификатор кодека/Подсказка : XviD
Продолжительность : 1 ч. 37 м.
Битрейт : 1341 Кбит/сек
Ширина : 720 пикселей
Высота : 304 пикселя
Соотношение сторон : 2,35:1
Частота кадров : 23,976 кадра/сек
Цветовое пространство : YUV
Субдискретизация насыщенности : 4:2:0
Битовая глубина : 8 бит
Тип развёртки : Прогрессивная
Метод сжатия : С потерями
Бит/(Пиксели*Кадры) : 0.256
Размер потока : 939 Мбайт (63%)
Библиотека кодирования : XviD 65
Аудио #1
Идентификатор : 1
Формат : AC-3
Формат/Информация : Audio Coding 3
Расширение режима : CM (complete main)
Параметр Endianness формата : Big
Идентификатор кодека : 2000
Продолжительность : 1 ч. 37 м.
Вид битрейта : Постоянный
Битрейт : 192 Кбит/сек
Каналы : 2 канала
Расположение каналов : Front: L R
Частота : 48,0 КГц
Метод сжатия : С потерями
Размер потока : 134 Мбайт (9%)
Выравнивание : Разделение по промежуткам
Продолжительность промежутка : 42 мс. (1,00 видеокадр)
Время предзагрузки промежутка : 500 мс.
Заголовок : Профессиональный (многоголосый закадровый) Кинопоказ
Аудио #2
Идентификатор : 2
Формат : AC-3
Формат/Информация : Audio Coding 3
Расширение режима : CM (complete main)
Параметр Endianness формата : Big
Идентификатор кодека : 2000
Продолжительность : 1 ч. 37 м.
Вид битрейта : Постоянный
Битрейт : 192 Кбит/сек
Каналы : 2 канала
Расположение каналов : Front: L R
Частота : 48,0 КГц
Метод сжатия : С потерями
Размер потока : 134 Мбайт (9%)
Выравнивание : Разделение по промежуткам
Продолжительность промежутка : 42 мс. (1,00 видеокадр)
Время предзагрузки промежутка : 500 мс.
Заголовок : Профессиональный (многоголосый закадровый) РенТВ
Аудио #3
Идентификатор : 3
Формат : AC-3
Формат/Информация : Audio Coding 3
Расширение режима : CM (complete main)
Параметр Endianness формата : Big
Идентификатор кодека : 2000
Продолжительность : 1 ч. 37 м.
Вид битрейта : Постоянный
Битрейт : 384 Кбит/сек
Каналы : 6 каналов
Расположение каналов : Front: L C R, Side: L R, LFE
Частота : 48,0 КГц
Метод сжатия : С потерями
Размер потока : 269 Мбайт (18%)
Выравнивание : Разделение по промежуткам
Продолжительность промежутка : 42 мс. (1,00 видеокадр)
Время предзагрузки промежутка : 500 мс.
Заголовок : Английский
Торрент перезалит 26.07.15 - добавлена дорожка с переводом Кинопоказ
[Профиль] [ЛС]

Создавать темы 06-Авг-2015 22:23 (спустя 10 дней)

Топик был перенесен из форума Фильмы до 2014 года в форум Фильмы до 2012 года
sergej644
 

Создавать темы 12-Июн-2016 07:55 (спустя 10 месяцев 16 дней)

Топик был перенесен из форума Фильмы 2011 года в форум Фильмы 2010 года
Russian Mafia
 
Кто просматривает тему:

Показать сообщения:    

Текущее время: Сегодня 02:37

Часовой пояс: GMT



Вы не можете начинать темы
Вы не можете отвечать на сообщения
Вы не можете редактировать свои сообщения
Вы не можете удалять свои сообщения
Вы не можете голосовать в опросах
Вы не можете прикреплять файлы к сообщениям
Вы не можете скачивать файлы