Игра престолов / Game of Thrones (Сезон 6, Серия 1-10 из 10) (Алан Тейлор, Даниэль Минахан) [2016, Фэнтези, приключения, экранизация , HDTV 400р ] [DD5.1] [MVO] [Amedia,LostFilm,BaibaKo,AlexFilm, FOX,FocusStudiо,NewStudio,UATEAM + Subs Rus,Ukr,ENG]

 
Автор Сообщение

Враг Нароода ®

Стаж: 1 год 8 месяцев

Сообщений: 109



Награды: 2 (Подробнее)

Mega Seeder 1 (Количество: 1) За внесенный вклад в развитие сайта (Количество: 1)
Торрент-статистика

Создавать темы 02-Май-2016 08:26

[Цитировать]

-- --Игра престолов / Game of Thrones Сезон 6, Серия 1-4 из 10-- -- --Год выпуска: 2016
Выпущено:США, Великобритания, Bighead Littlehead, Created B
Жанр: Фэнтези, драма, приключения, экранизация
Продолжительность: 00:55:00
Сезон: 6
Серия: 1-4
Количество серий в сезоне: 10
Озвучка 1: Профессиональный многоголосый,Дубляж -Amedia-Русский
Озвучка 2: Профессиональный многоголосый - LostFilm-Русский
Озвучка 3: Профессиональный многоголосый - BaibaKo-Русский
Озвучка 4: Профессиональный многоголосый -AlexFilm-Русский
Озвучка 5: Профессиональный многоголосый - FOX-Русский
Озвучка 6: Профессиональный многоголосый - FocusStudiо-Русский
Озвучка 7: Профессиональный многоголосый -UATEAM-Украинский
Озвучка 8: Профессиональный многоголосый -Английский -Оригинал
Субтитры: Русские (Forsed (стилизованные by messafan), Полные (Амедиа, 7kingdoms, Opel & Volverine73), Английские
--Сайт сериала:
--Режиссер: Алан Тейлор, Даниэль Минахан, Дэвид Наттер--В ролях:Лина Хиди, Питер Динклэйдж, Мишель Фэйрли, Эмилия Кларк, Кит Харингтон, Николай Костер-Валдау, Иэн Глен, Эйден Гиллен, Элфи Оуэн-Аллен, Мэйси Уильямс, Софи Тёрнер, Джек Глисон, Айзек Хемпстед-Райт, Ричард Мэдден, Джером Флинн, Конлет Хилл, Дональд Самптер, Рори МакКанн, Амрита Ачария, Чарльз Дэнс, Джон Брэдли, Кристиан Нэйрн, Сибель Кекилли, Джеймс Космо, Стивен Диллэйн, Гетин Энтони, Гвендолин Кристи, Натали Дормер, Уна Чаплин-- О сериале "Игра престолов"
К концу подходит время благоденствия, и лето, длившееся несколько десятилетий, угасает. Вокруг средоточия власти Семи королевств, Железного трона, зреет заговор, и в это непростое время король решает искать поддержки у друга юности Эддарда Старка (Шон Бин). В мире, где все — от короля до наемника — рвутся к власти, плетут интриги и готовы вонзить нож в спину, есть место и благородству, состраданию и любви. Между тем, никто не замечает пробуждение тьмы из легенд далеко на Севере — и лишь Стена защищает живых к югу от нее.
Между древней ледяной Стеной и пламенем навсегда ушедших из мира драконов разворачивается «Игра престолов» — долгожданная экранизация культовой саги Джорджа Р. Р. Мартина «Песнь льда и пламени».
-- --Качество : HDTV 400р
Формат: MKV
Видео кодек: H264
Видео: 3089Кбит/сек,720х480(3.2),в в 25.000кадр/сек,AVC(Baseline@L3)(1 Ref Frames)
Аудио Кодек:AC3
Аудио #1:AC3 , 640 Kbps, 48.0 KHz, 6 ch- -Amedia-Русский
Аудио #2:AC3 , 384 Kbps, 48.0 KHz, 6 ch- -LostFilm-Русский
Аудио #3: AC3, 384 Kbps, 48.0 KHz, 6 ch - BaibaKo-Русский
Аудио #4: AC3, 384 Kbps, 48.0 KHz, 6 ch - AlexFilm-Русский
Аудио #5: AC3, 384 Kbps, 48.0 KHz, 6 ch - FOX-Русский
Аудио #6: AC3, 384 Kbps, 48.0 KHz, 6 ch - FocusStudiо-Русский
Аудио #7: AC3, 384 Kbps, 48.0 KHz,6 ch - -UATEAM-Ukrainian-Украинский
Аудио #8: AC3, 384 Kbps, 48.0 KHz,6 ch - - English-Английский -Оригинал--

Доп. информация:

Звуковая дорожка сделана путем наложения чистого голоса озвучивателей на центральный канал оригинальной дорожки. Качество идентично звуковой дорожке.
--

Список эпизодов сезона


01 Красная женщина (The Red Woman)
02 Дом (Home)
03 Нарушивший клятву (Oathbreaker)
04 Книга Неведомого (Book of the Stranger)
--

MediaInfo СЕЗОНА

Общее
Уникальный идентификатор : 188899988150155319096810310010510787446 (0x8E1CD07A5FB9255EA605C915E8504376)
Полное имя : D:\ИГРА ПРЕСТОЛОВ\Game_of_Thrones_2016_S06_[Kravec_BaibaKo_LostFilm_AlexFilm_FOX_ FocusStudio_UAteam]_DD5.1_N.B_HDTV_400р_Rus_Ukr_Eng\Game_of_Thrones_2016_S06E01_DD5.1_N.B_HDTV_400р_6хRus_Ukr_Eng.mkv
Формат : Matroska
Версия формата : Version 4 / Version 2
Размер файла : 2,44 Гбайт
Продолжительность : 54 м.
Режим общего битрейта : Переменный
Общий поток : 6421 Кбит/сек
Название фильма : Game_of_Thrones_2016_S06E01_DD5.1_N.B_HDTV_400р_6хRus_Ukr_Eng
Дата кодирования : UTC 2016-05-07 05:01:46
Программа кодирования : mkvmerge v9.0.0 ('Power to progress') 64bit
Библиотека кодирования : libebml v1.3.3 + libmatroska v1.4.4
Видео
Идентификатор : 1
Формат : AVC
Формат/Информация : Advanced Video Codec
Профиль формата : Baseline@L3
Параметр CABAC формата : Нет
Параметр ReFrames формата : 1 кадр
Параметр GOP формата : M=1, N=12
Идентификатор кодека : V_MPEG4/ISO/AVC
Продолжительность : 54 м.
Вид битрейта : Переменный
Битрейт : 3089 Кбит/сек
Максимальный битрейт : 4500 Кбит/сек
Ширина : 720 пикселей
Высота : 480 пикселей
Соотношение сторон : 3:2
Соотношение сторон в оригинале : 3:2
Режим частоты кадров : Постоянный
Частота кадров : 25,000 кадров/сек
Частота кадров в оригинале : 24,000 кадра/сек
Цветовое пространство : YUV
Субдискретизация насыщенности : 4:2:0
Битовая глубина : 8 бит
Тип развёртки : Прогрессивная
Бит/(Пиксели*Кадры) : 0.357
Размер потока : 1,17 Гбайт (48%)
Заголовок : Game_of_Thrones_2016_S06E01_DD5.1_N.B_HDTV_400р_6хRus_Ukr_Eng
Язык : English
Default : Да
Forced : Нет
Аудио #1
Идентификатор : 8
Формат : AC-3
Формат/Информация : Audio Coding 3
Расширение режима : CM (complete main)
Параметр Endianness формата : Big
Идентификатор кодека : A_AC3
Продолжительность : 54 м.
Вид битрейта : Постоянный
Битрейт : 640 Кбит/сек
Каналы : 6 каналов
Расположение каналов : Front: L C R, Side: L R, LFE
Частота : 48,0 КГц
Частота кадров : 31,250 кадров/сек (1536 spf)
Метод сжатия : С потерями
Размер потока : 249 Мбайт (10%)
Заголовок : Kravec@DD5.1 640kbps
Язык : Russian
Default : Да
Forced : Нет
Аудио #2
Идентификатор : 9
Формат : AC-3
Формат/Информация : Audio Coding 3
Расширение режима : CM (complete main)
Параметр Endianness формата : Big
Идентификатор кодека : A_AC3
Продолжительность : 54 м.
Вид битрейта : Постоянный
Битрейт : 384 Кбит/сек
Каналы : 6 каналов
Расположение каналов : Front: L C R, Side: L R, LFE
Частота : 48,0 КГц
Частота кадров : 31,250 кадров/сек (1536 spf)
Метод сжатия : С потерями
Задержка видео : 26 мс.
Размер потока : 150 Мбайт (6%)
Заголовок : BaibaKo@DD5.1 384kbps
Язык : Russian
Default : Нет
Forced : Нет
Аудио #3
Идентификатор : 10
Формат : AC-3
Формат/Информация : Audio Coding 3
Расширение режима : CM (complete main)
Параметр Endianness формата : Big
Идентификатор кодека : A_AC3
Продолжительность : 54 м.
Вид битрейта : Постоянный
Битрейт : 384 Кбит/сек
Каналы : 6 каналов
Расположение каналов : Front: L C R, Side: L R, LFE
Частота : 48,0 КГц
Частота кадров : 31,250 кадров/сек (1536 spf)
Метод сжатия : С потерями
Размер потока : 150 Мбайт (6%)
Заголовок : LostFilm@DD5.1 384kbps
Язык : Russian
Default : Нет
Forced : Нет
Аудио #4
Идентификатор : 11
Формат : AC-3
Формат/Информация : Audio Coding 3
Расширение режима : CM (complete main)
Параметр Endianness формата : Big
Идентификатор кодека : A_AC3
Продолжительность : 54 м.
Вид битрейта : Постоянный
Битрейт : 384 Кбит/сек
Каналы : 6 каналов
Расположение каналов : Front: L C R, Side: L R, LFE
Частота : 48,0 КГц
Частота кадров : 31,250 кадров/сек (1536 spf)
Метод сжатия : С потерями
Размер потока : 150 Мбайт (6%)
Заголовок : AlexFilm@DD5.1 384kbps
Язык : Russian
Default : Нет
Forced : Нет
Аудио #5
Идентификатор : 12
Формат : AC-3
Формат/Информация : Audio Coding 3
Расширение режима : CM (complete main)
Параметр Endianness формата : Big
Идентификатор кодека : A_AC3
Продолжительность : 54 м.
Вид битрейта : Постоянный
Битрейт : 384 Кбит/сек
Каналы : 6 каналов
Расположение каналов : Front: L C R, Side: L R, LFE
Частота : 48,0 КГц
Частота кадров : 31,250 кадров/сек (1536 spf)
Метод сжатия : С потерями
Размер потока : 150 Мбайт (6%)
Заголовок : FOX@DD5.1 384kbps
Язык : Russian
Default : Нет
Forced : Нет
Аудио #6
Идентификатор : 13
Формат : AC-3
Формат/Информация : Audio Coding 3
Расширение режима : CM (complete main)
Параметр Endianness формата : Big
Идентификатор кодека : A_AC3
Продолжительность : 54 м.
Вид битрейта : Постоянный
Битрейт : 384 Кбит/сек
Каналы : 6 каналов
Расположение каналов : Front: L C R, Side: L R, LFE
Частота : 48,0 КГц
Частота кадров : 31,250 кадров/сек (1536 spf)
Метод сжатия : С потерями
Размер потока : 150 Мбайт (6%)
Заголовок : FocusStudio@DD5.1 384kbps
Язык : Russian
Default : Нет
Forced : Нет
Аудио #7
Идентификатор : 14
Формат : AC-3
Формат/Информация : Audio Coding 3
Расширение режима : CM (complete main)
Параметр Endianness формата : Big
Идентификатор кодека : A_AC3
Продолжительность : 54 м.
Вид битрейта : Постоянный
Битрейт : 384 Кбит/сек
Каналы : 6 каналов
Расположение каналов : Front: L C R, Side: L R, LFE
Частота : 48,0 КГц
Частота кадров : 31,250 кадров/сек (1536 spf)
Метод сжатия : С потерями
Размер потока : 150 Мбайт (6%)
Заголовок : UAteam@DD5.1 384kbps
Язык : Ukrainian
Default : Нет
Forced : Нет
Аудио #8
Идентификатор : 15
Формат : AC-3
Формат/Информация : Audio Coding 3
Расширение режима : CM (complete main)
Параметр Endianness формата : Big
Идентификатор кодека : A_AC3
Продолжительность : 54 м.
Вид битрейта : Постоянный
Битрейт : 384 Кбит/сек
Каналы : 2 канала
Расположение каналов : Front: L R
Частота : 48,0 КГц
Частота кадров : 31,250 кадров/сек (1536 spf)
Метод сжатия : С потерями
Размер потока : 150 Мбайт (6%)
Заголовок : Original@DD5.1 384kbps
Язык : English
Default : Нет
Forced : Нет
Текст #1
Идентификатор : 2
Формат : ASS
Идентификатор кодека : S_TEXT/ASS
Идентификатор кодека/Информация : Advanced Sub Station Alpha
Продолжительность : 45 м.
Битрейт : 37 бит/сек
Count of elements : 134
Метод сжатия : Без потерь
Размер потока : 12,4 Кбайт (0%)
Заголовок : Forced by messafan
Язык : Russian
Default : Да
Forced : Да
Текст #2
Идентификатор : 3
Формат : UTF-8
Идентификатор кодека : S_TEXT/UTF8
Идентификатор кодека/Информация : UTF-8 Plain Text
Продолжительность : 45 м.
Битрейт : 23 бит/сек
Count of elements : 134
Размер потока : 7,60 Кбайт (0%)
Заголовок : Forced simple
Язык : Russian
Default : Нет
Forced : Нет
Текст #3
Идентификатор : 4
Формат : UTF-8
Идентификатор кодека : S_TEXT/UTF8
Идентификатор кодека/Информация : UTF-8 Plain Text
Продолжительность : 49 м.
Битрейт : 70 бит/сек
Count of elements : 541
Размер потока : 25,7 Кбайт (0%)
Заголовок : Rus full [Amedia]
Язык : Russian
Default : Нет
Forced : Нет
Текст #4
Идентификатор : 5
Формат : UTF-8
Идентификатор кодека : S_TEXT/UTF8
Идентификатор кодека/Информация : UTF-8 Plain Text
Продолжительность : 52 м.
Битрейт : 72 бит/сек
Count of elements : 508
Размер потока : 27,7 Кбайт (0%)
Заголовок : Rus full [7kingdoms]
Язык : Russian
Default : Нет
Forced : Нет
Текст #5
Идентификатор : 6
Формат : UTF-8
Идентификатор кодека : S_TEXT/UTF8
Идентификатор кодека/Информация : UTF-8 Plain Text
Продолжительность : 52 м.
Битрейт : 77 бит/сек
Count of elements : 507
Размер потока : 30,1 Кбайт (0%)
Заголовок : Rus Full [Opel & Volverine73]
Язык : Russian
Default : Нет
Forced : Нет
Текст #6
Идентификатор : 7
Формат : UTF-8
Идентификатор кодека : S_TEXT/UTF8
Идентификатор кодека/Информация : UTF-8 Plain Text
Продолжительность : 49 м.
Битрейт : 37 бит/сек
Count of elements : 435
Размер потока : 13,6 Кбайт (0%)
Заголовок : Eng full sub
Язык : English
Default : Нет
Forced : Нет
--

Скриншоты

-- --Внимание! В сериале присутствуют сцены с обнаженной натурой!-- Внимание! Раздача ведётся путём добавления новых серий!--

Внимание! Раздача ведётся путём добавления новых серий!

Раздача ведётся путём добавления новых серий; при каждом добавлении создётся новый торрент.
Чтобы начать докачку новой серии, пользователям необходимо сделать следующее:
1. остановить скачивание,
2. удалить старый торрент у себя из клиента (старые серии удалять не надо),
3. скачать новый торрент и запустить его у себя в клиенте вместо старого, при этом указать клиенту путь в старую папку, куда и должно происходить скачивание новых серий.
Ваш клиент при этом должен произвести хеширование (проверку) старой папки (если не производит сам - помогите ему сделать это), и будет докачивать только те серии которых у вас ещё нет. Старые серии при этом не удаляются, а продолжают раздаваться!
Eсли вы уже удалили старые серии, то предотвратить повторную закачку старых серий можно, отжав галочку в соответсвующих местах при запуске нового торрента. По возможности, желательно не удалять старые серии как можно дольше, чтобы релизёр не столько продолжал раздавать старые серии, а смог сконцентрироваться на новых.
Совет для тех, кто не хочет ждать перехеширования:
Создайте ещё одну папку рядом с папкой сериала (рядом, а не в ней!!!). Каждую новую серию после удачной загрузки копируйте в новую папку так чтобы ваша основная папка всегда была пуста. Когда ваш новый торрент предложит вам закачать все файлы, выберете только последнюю. Для сидирования же укажите адрес новой папки.
Как закачать отдельный файл из торрента или докачать ранее пропущенные файлы торрента!

Как закачать отдельный файл

1. Открыть торрент
2. Снять галки с тех файлов торрента, которые мы не хотим закачивать. Оставляем только на нужных нам файлах (файле).
3. Нажать О.К.
В клиенте utorrent
Инструкция
1) Открыть торрент

2) Снять галки с тех файлов торрента, которые мы не хотим закачивать:
* либо вручную, снимая с каждого файла галку( скрин №1)
* либо, нажав кнопку "Снять метки (Select None)", сняв сразу со всех файлов(скрин №2)
№1

№2

Оставляем только на нужных нам файлах (файле).

3)Нажать О.К
-- -- --Внимание!!! 19.05. 2016. РАЗДАЧА ОБНОВЛЕНА. ОБНОВИТЕ ТОРЕНТ ФАЙЛ.ПРИЯТНОГО ПРОСМОТРА . --Релиз от: Nikolai.Baranov & PIRATIYA -- -- -- --
[Профиль] [ЛС]
Кто просматривает тему:

Показать сообщения:    

Текущее время: Сегодня 00:37

Часовой пояс: GMT



Вы не можете начинать темы
Вы не можете отвечать на сообщения
Вы не можете редактировать свои сообщения
Вы не можете удалять свои сообщения
Вы не можете голосовать в опросах
Вы не можете прикреплять файлы к сообщениям
Вы не можете скачивать файлы