Игра престолов / Game of Thrones (Сезон 6, Серия 1-10 из 10) (Алан Тейлор, Даниэль Минахан) [2016, Фэнтези, приключения, экранизация , HDTV 1080i] [DD5.1] [MVO] [Amedia,LostFilm,BaibaKo,AlexFilm, FOX,FocusStudiо,NewStudio,UATEAM + Subs Rus,Ukr,ENG]

 
Автор Сообщение

Враг Нароода ®

Стаж: 1 год 8 месяцев

Сообщений: 111



Награды: 2 (Подробнее)

Mega Seeder 1 (Количество: 1) За внесенный вклад в развитие сайта (Количество: 1)
Торрент-статистика

Создавать темы 28-Апр-2016 07:14

[Цитировать]

-- --Игра престолов / Game of Thrones Сезон 6, Серия 1-10 из 10-- -- --Год выпуска: 2016
Выпущено:США, Великобритания, Bighead Littlehead, Created B
Жанр: Фэнтези, драма, приключения, экранизация
Продолжительность: 00:55:00
Сезон: 6
Серия: 1-10
Количество серий в сезоне: 10
Озвучка 1: Профессиональный многоголосый,Дубляж -Amedia-Русский
Озвучка 2: Профессиональный многоголосый - LostFilm-Русский
Озвучка 3: Профессиональный многоголосый - BaibaKo-Русский
Озвучка 4: Профессиональный многоголосый -AlexFilm-Русский
Озвучка 5: Профессиональный многоголосый - FOX-Русский
Озвучка 6: Профессиональный многоголосый - FocusStudiо-Русский
Озвучка 7: Профессиональный многоголосый -NewStudio-Русский
Озвучка 8: Профессиональный многоголосый -UATEAM-Украинский
Озвучка 9: Профессиональный многоголосый -Английский -Оригинал
Субтитры: Русские (Forsed (стилизованные by messafan), Полные (Амедиа, 7kingdoms, Opel & Volverine73),Украинские,Английские
--Сайт сериала:
--Режиссер: Алан Тейлор, Даниэль Минахан, Дэвид Наттер--В ролях:Лина Хиди, Питер Динклэйдж, Мишель Фэйрли, Эмилия Кларк, Кит Харингтон, Николай Костер-Валдау, Иэн Глен, Эйден Гиллен, Элфи Оуэн-Аллен, Мэйси Уильямс, Софи Тёрнер, Джек Глисон, Айзек Хемпстед-Райт, Ричард Мэдден, Джером Флинн, Конлет Хилл, Дональд Самптер, Рори МакКанн, Амрита Ачария, Чарльз Дэнс, Джон Брэдли, Кристиан Нэйрн, Сибель Кекилли, Джеймс Космо, Стивен Диллэйн, Гетин Энтони, Гвендолин Кристи, Натали Дормер, Уна Чаплин-- О сериале "Игра престолов"
К концу подходит время благоденствия, и лето, длившееся несколько десятилетий, угасает. Вокруг средоточия власти Семи королевств, Железного трона, зреет заговор, и в это непростое время король решает искать поддержки у друга юности Эддарда Старка (Шон Бин). В мире, где все — от короля до наемника — рвутся к власти, плетут интриги и готовы вонзить нож в спину, есть место и благородству, состраданию и любви. Между тем, никто не замечает пробуждение тьмы из легенд далеко на Севере — и лишь Стена защищает живых к югу от нее.
Между древней ледяной Стеной и пламенем навсегда ушедших из мира драконов разворачивается «Игра престолов» — долгожданная экранизация культовой саги Джорджа Р. Р. Мартина «Песнь льда и пламени».
-- --Качество : HDTV 1080i
Формат: MKV
Видео кодек: H264
Видео: 10.8Мбит/сек,1920х1080(16.9),в 24.350кадр/сек,MPEG(Video)(Version2)(Main@High) (BVOP)
Аудио Кодек:AC3
Аудио #1:AC3 , 640 Kbps, 48.0 KHz, 6 ch- -Amedia-Русский
Аудио #2:AC3 , 384 Kbps, 48.0 KHz, 6 ch- -LostFilm-Русский
Аудио #3: AC3, 384 Kbps, 48.0 KHz, 6 ch - BaibaKo-Русский
Аудио #4: AC3, 384 Kbps, 48.0 KHz, 6 ch - AlexFilm-Русский
Аудио #5: AC3, 384 Kbps, 48.0 KHz, 6 ch - FOX-Русский
Аудио #6: AC3, 384 Kbps, 48.0 KHz, 6 ch - FocusStudiо-Русский
Аудио #7: AC3, 384 Kbps, 48.0 KHz, 6 ch - NewStudio-Русский
Аудио #8: AC3, 384 Kbps, 48.0 KHz,6 ch - -UATEAM-Ukrainian-Украинский
Аудио #9: AC3, 384 Kbps, 48.0 KHz,6 ch - - English-Английский -Оригинал--

Доп. информация:

Звуковая дорожка сделана путем наложения чистого голоса озвучивателей на центральный канал оригинальной дорожки. Качество идентично звуковой дорожке.
--

Список эпизодов сезона


01 Красная женщина (The Red Woman)
02 Дом (Home)
03 Нарушивший клятву (Oathbreaker)
04 Книга Неведомого (Book of the Stranger)
05 Дверь (The Door)
06 Кровь моей крови (Blood of My Blood)
07 Сломленный человек (The Broken Man)
08 Никто (No One)
09 Битва бастардов (Battle of the Bastards)
10 Ветра зимы (The Winds of Winter)
--

MediaInfo СЕЗОНА

Общее
Уникальный идентификатор : 185038249150688717444348334045587013250 (0x8B35120B9BBE723AA274DBF3C1F37E82)
Полное имя : D:\ИГРА ПРЕСТ ЛОВ\Game_of_Thrones_2016_S06_[BaibaKo_Kravec_AlexFilm_LostFilm_FOX_ FocusStudio_NewStudio_UAteam]_DD5.1_N.B_HDTV_1080i_Rus_Ukr_Eng\Game_of_Thrones_2016_S06E01_DD5.1_N.B_HDTV_1080i_7хRus_Ukr_Eng.mkv
Формат : Matroska
Версия формата : Version 4 / Version 2
Размер файла : 5,13 Гбайт
Продолжительность : 50 м.
Режим общего битрейта : Переменный
Общий поток : 14,5 Мбит/сек
Название фильма : Game_of_Thrones_2016_S06E01_DD5.1_N.B_HDTV_1080i_7хRus_Ukr_Eng
Дата кодирования : UTC 2016-07-08 09:29:29
Программа кодирования : mkvmerge v9.2.0 ('Photograph') 64bit
Библиотека кодирования : libebml v1.3.3 + libmatroska v1.4.4
Attachments : HelveticaNeueLTW1G-Md_0.ttf
Видео
Идентификатор : 1
Формат : MPEG Video
Версия формата : Version 2
Профиль формата : Main@High
Параметр BVOP формата : Да
Параметр матрицы формата : По умолчанию
Параметр GOP формата : Variable
Идентификатор кодека : V_MPEG2
Идентификатор кодека/Информация : MPEG 1 or 2 Video
Продолжительность : 50 м.
Вид битрейта : Переменный
Битрейт : 10,8 Мбит/сек
Максимальный битрейт : 64,0 Мбит/сек
Ширина : 1920 пикселей
Высота : 1080 пикселей
Соотношение сторон : 16:9
Режим частоты кадров : Переменный
Частота кадров : 24,351 кадра/сек
Частота кадров в оригинале : 29,970 (30000/1001) кадров/сек
Цветовое пространство : YUV
Субдискретизация насыщенности : 4:2:0
Битовая глубина : 8 бит
Метод сжатия : С потерями
Бит/(Пиксели*Кадры) : 0.214
Временной код первого кадра : 00:03:53;05
Оригинал временного кода : Group of pictures header
Размер потока : 3,82 Гбайт (74%)
Заголовок : Game_of_Thrones_2016_S06E01_DD5.1_N.B_HDTV_1080i_7хRus_Ukr_Eng
Язык : English
Default : Да
Forced : Нет
Аудио #1
Идентификатор : 8
Формат : AC-3
Формат/Информация : Audio Coding 3
Расширение режима : CM (complete main)
Параметр Endianness формата : Big
Идентификатор кодека : A_AC3
Продолжительность : 50 м.
Вид битрейта : Постоянный
Битрейт : 384 Кбит/сек
Каналы : 6 каналов
Расположение каналов : Front: L C R, Side: L R, LFE
Частота : 48,0 КГц
Частота кадров : 31,250 кадров/сек (1536 spf)
Метод сжатия : С потерями
Задержка видео : 10 мс.
Размер потока : 139 Мбайт (3%)
Заголовок : MVO BaibaKo DD5.1@384kbps
Язык : Russian
Default : Да
Forced : Нет
Аудио #2
Идентификатор : 9
Формат : AC-3
Формат/Информация : Audio Coding 3
Расширение режима : CM (complete main)
Параметр Endianness формата : Big
Идентификатор кодека : A_AC3
Продолжительность : 50 м.
Вид битрейта : Постоянный
Битрейт : 640 Кбит/сек
Каналы : 6 каналов
Расположение каналов : Front: L C R, Side: L R, LFE
Частота : 48,0 КГц
Частота кадров : 31,250 кадров/сек (1536 spf)
Метод сжатия : С потерями
Задержка видео : 16 мс.
Размер потока : 231 Мбайт (4%)
Заголовок : MVO Kravec DUB DD5.1@640kbps
Язык : Russian
Default : Нет
Forced : Нет
Аудио #3
Идентификатор : 10
Формат : AC-3
Формат/Информация : Audio Coding 3
Расширение режима : CM (complete main)
Параметр Endianness формата : Big
Идентификатор кодека : A_AC3
Продолжительность : 50 м.
Вид битрейта : Постоянный
Битрейт : 384 Кбит/сек
Каналы : 6 каналов
Расположение каналов : Front: L C R, Side: L R, LFE
Частота : 48,0 КГц
Частота кадров : 31,250 кадров/сек (1536 spf)
Метод сжатия : С потерями
Задержка видео : 16 мс.
Размер потока : 139 Мбайт (3%)
Заголовок : MVO AlexFilm DD5.1@384kbps
Язык : Russian
Default : Нет
Forced : Нет
Аудио #4
Идентификатор : 11
Формат : AC-3
Формат/Информация : Audio Coding 3
Расширение режима : CM (complete main)
Параметр Endianness формата : Big
Идентификатор кодека : A_AC3
Продолжительность : 50 м.
Вид битрейта : Постоянный
Битрейт : 384 Кбит/сек
Каналы : 6 каналов
Расположение каналов : Front: L C R, Side: L R, LFE
Частота : 48,0 КГц
Частота кадров : 31,250 кадров/сек (1536 spf)
Метод сжатия : С потерями
Задержка видео : 16 мс.
Размер потока : 139 Мбайт (3%)
Заголовок : MVO LostFilm DD5.1@384kbps
Язык : Russian
Default : Нет
Forced : Нет
Аудио #5
Идентификатор : 12
Формат : AC-3
Формат/Информация : Audio Coding 3
Расширение режима : CM (complete main)
Параметр Endianness формата : Big
Идентификатор кодека : A_AC3
Продолжительность : 50 м.
Вид битрейта : Постоянный
Битрейт : 384 Кбит/сек
Каналы : 6 каналов
Расположение каналов : Front: L C R, Side: L R, LFE
Частота : 48,0 КГц
Частота кадров : 31,250 кадров/сек (1536 spf)
Метод сжатия : С потерями
Задержка видео : 16 мс.
Размер потока : 139 Мбайт (3%)
Заголовок : MVO FOX DD5.1@384kbps
Язык : Russian
Default : Нет
Forced : Нет
Аудио #6
Идентификатор : 13
Формат : AC-3
Формат/Информация : Audio Coding 3
Расширение режима : CM (complete main)
Параметр Endianness формата : Big
Идентификатор кодека : A_AC3
Продолжительность : 50 м.
Вид битрейта : Постоянный
Битрейт : 384 Кбит/сек
Каналы : 6 каналов
Расположение каналов : Front: L C R, Side: L R, LFE
Частота : 48,0 КГц
Частота кадров : 31,250 кадров/сек (1536 spf)
Метод сжатия : С потерями
Задержка видео : 16 мс.
Размер потока : 139 Мбайт (3%)
Заголовок : MVO FocusStudio DD5.1@384kbps
Язык : Russian
Default : Нет
Forced : Нет
Аудио #7
Идентификатор : 14
Формат : AC-3
Формат/Информация : Audio Coding 3
Расширение режима : CM (complete main)
Параметр Endianness формата : Big
Идентификатор кодека : A_AC3
Продолжительность : 50 м.
Вид битрейта : Постоянный
Битрейт : 384 Кбит/сек
Каналы : 6 каналов
Расположение каналов : Front: L C R, Side: L R, LFE
Частота : 48,0 КГц
Частота кадров : 31,250 кадров/сек (1536 spf)
Метод сжатия : С потерями
Задержка видео : 16 мс.
Размер потока : 139 Мбайт (3%)
Заголовок : Ukr MVO Omikron DD5.1@384kbps
Язык : Ukrainian
Default : Нет
Forced : Нет
Аудио #8
Идентификатор : 15
Формат : AC-3
Формат/Информация : Audio Coding 3
Расширение режима : CM (complete main)
Параметр Endianness формата : Big
Идентификатор кодека : A_AC3
Продолжительность : 50 м.
Вид битрейта : Постоянный
Битрейт : 384 Кбит/сек
Каналы : 2 канала
Расположение каналов : Front: L R
Частота : 48,0 КГц
Частота кадров : 31,250 кадров/сек (1536 spf)
Метод сжатия : С потерями
Задержка видео : 16 мс.
Размер потока : 139 Мбайт (3%)
Заголовок : Original DD5.1@384kbps
Язык : English
Default : Нет
Forced : Нет
Аудио #9
Идентификатор : 16
Формат : AC-3
Формат/Информация : Audio Coding 3
Расширение режима : CM (complete main)
Параметр Endianness формата : Big
Идентификатор кодека : A_AC3
Продолжительность : 50 м.
Вид битрейта : Постоянный
Битрейт : 384 Кбит/сек
Каналы : 6 каналов
Расположение каналов : Front: L C R, Side: L R, LFE
Частота : 48,0 КГц
Частота кадров : 31,250 кадров/сек (1536 spf)
Метод сжатия : С потерями
Задержка видео : -1 мс.
Размер потока : 137 Мбайт (3%)
Заголовок : MVO NewStudio DD5.1@384kbps
Язык : Russian
Default : Нет
Forced : Нет
Текст #1
Идентификатор : 2
Формат : ASS
Идентификатор кодека : S_TEXT/ASS
Идентификатор кодека/Информация : Advanced Sub Station Alpha
Продолжительность : 11 м.
Битрейт : 101 бит/сек
Count of elements : 88
Метод сжатия : Без потерь
Размер потока : 8,54 Кбайт (0%)
Заголовок : Forced by messafan
Язык : Russian
Default : Да
Forced : Да
Текст #2
Идентификатор : 3
Формат : UTF-8
Идентификатор кодека : S_TEXT/UTF8
Идентификатор кодека/Информация : UTF-8 Plain Text
Продолжительность : 11 м.
Битрейт : 55 бит/сек
Count of elements : 88
Размер потока : 4,65 Кбайт (0%)
Заголовок : Forced simple
Язык : Russian
Default : Нет
Forced : Нет
Текст #3
Идентификатор : 4
Формат : UTF-8
Идентификатор кодека : S_TEXT/UTF8
Идентификатор кодека/Информация : UTF-8 Plain Text
Продолжительность : 42 м.
Битрейт : 73 бит/сек
Count of elements : 495
Размер потока : 22,7 Кбайт (0%)
Заголовок : Rus full [Amedia]
Язык : Russian
Default : Нет
Forced : Нет
Текст #4
Идентификатор : 5
Формат : UTF-8
Идентификатор кодека : S_TEXT/UTF8
Идентификатор кодека/Информация : UTF-8 Plain Text
Продолжительность : 47 м.
Битрейт : 71 бит/сек
Count of elements : 462
Размер потока : 24,8 Кбайт (0%)
Заголовок : Rus full [7kingdoms]
Язык : Russian
Default : Нет
Forced : Нет
Текст #5
Идентификатор : 6
Формат : UTF-8
Идентификатор кодека : S_TEXT/UTF8
Идентификатор кодека/Информация : UTF-8 Plain Text
Продолжительность : 47 м.
Битрейт : 78 бит/сек
Count of elements : 461
Размер потока : 27,1 Кбайт (0%)
Заголовок : Rus Full [Opel & Volverine73]
Язык : Russian
Default : Нет
Forced : Нет
Текст #6
Идентификатор : 7
Формат : UTF-8
Идентификатор кодека : S_TEXT/UTF8
Идентификатор кодека/Информация : UTF-8 Plain Text
Продолжительность : 42 м.
Битрейт : 37 бит/сек
Count of elements : 382
Размер потока : 11,8 Кбайт (0%)
Заголовок : Eng full sub
Язык : English
Default : Нет
Forced : Нет
Текст #7
Идентификатор : 17
Формат : UTF-8
Идентификатор кодека : S_TEXT/UTF8
Идентификатор кодека/Информация : UTF-8 Plain Text
Продолжительность : 48 м.
Битрейт : 70 бит/сек
Count of elements : 466
Размер потока : 25,1 Кбайт (0%)
Заголовок : Rus
Язык : Russian
Default : Нет
Forced : Нет
--

Скриншоты

-- --Внимание! В сериале присутствуют сцены с обнаженной натурой!--

Как закачать отдельный файл

1. Открыть торрент
2. Снять галки с тех файлов торрента, которые мы не хотим закачивать. Оставляем только на нужных нам файлах (файле).
3. Нажать О.К.
В клиенте utorrent
Инструкция
1) Открыть торрент

2) Снять галки с тех файлов торрента, которые мы не хотим закачивать:
* либо вручную, снимая с каждого файла галку( скрин №1)
* либо, нажав кнопку "Снять метки (Select None)", сняв сразу со всех файлов(скрин №2)
№1

№2

Оставляем только на нужных нам файлах (файле).

3)Нажать О.К
-- -- --Внимание!!! 09.07. 2016. РАЗДАЧА ОБНОВЛЕНА. ФИНАЛ СЕЗОНА. ОБНОВИТЕ ТОРЕНТ ФАЙЛ.ПРИЯТНОГО ПРОСМОТРА . --Релиз от: Nikolai.Baranov & PIRATIYA -- -- -- --
[Профиль] [ЛС]
Кто просматривает тему:

Показать сообщения:    

Текущее время: Сегодня 06:18

Часовой пояс: GMT



Вы не можете начинать темы
Вы не можете отвечать на сообщения
Вы не можете редактировать свои сообщения
Вы не можете удалять свои сообщения
Вы не можете голосовать в опросах
Вы не можете прикреплять файлы к сообщениям
Вы не можете скачивать файлы