Игра престолов / Game of Thrones [S05] (2015) Blu-ray 1080p | Лицензия

 
Автор Сообщение

достали все ®

Пол:

Стаж: 1 год 8 месяцев

Сообщений: 6600



Награды: 12 (Подробнее)

Mega Seeder 4 (Количество: 1) Mega Seeder 1 (Количество: 1) Mega Seeder 5 (Количество: 1)
Торрент-статистика

Создавать темы 25-Сен-2016 17:11

[Цитировать]

Производство: США / Bighead Littlehead, Created By, Generator Entertainment
Жанр: фэнтези, драма, приключения
Режиссер: Алан Тейлор, Дэвид Наттер, Алекс Грейвз
Продюсер: Дэвид Бениофф, Гаймон Кеседи, Фрэнк Дульгер
Актеры: Лина Хиди, Питер Динклэйдж, Мишель Фэйрли, Эмилия Кларк, Кит Харингтон, Николай Костер-Валдау, Иэн Глен, Эйден Гиллен, Элфи Оуэн-Аллен, Мэйси Уильямс, Софи Тёрнер, Джек Глисон, Айзек Хемпстед-Райт, Ричард Мэдден, Джером Флинн, Конлет Хилл, Дональд Самптер, Рори МакКанн, Амрита Ачария, Чарльз Дэнс, Джон Брэдли, Кристиан Нэйрн, Сибель Кекилли, Джеймс Космо, Стивен Диллэйн, Гетин Энтони, Гвендолин Кристи, Натали Дормер, Уна Чаплин
Описание:
Главный эпос современности. Фэнтези, которое говорит о человеческих страстях, природе власти, механизмах политики и устройстве нашего мира точнее и лучше, чем любое документальное кино. Сказка, от которой невозможно оторваться. Самый популярный и дорогостоящий сериал в мире.
Война умыла кровью семь королевств. Победители ликуют, а проигравшие оплакивают близких и готовят план мести. Жестокой и коварной мести, которая страшнее даже самых свирепых драконов.

Продолжительность: 10 x ~ 00:50:00
Качество: Blu-ray (4-Disc Set) Сезон 5
Перевод: Дублированный (Лицензия BD CEE)
Вид субтитров: Вшитые, отключаемые
Язык субтитров: Русский, Английский, Китайский, Хорватский, Иврит, Венгерский, Итальянский, Корейский, Португальский, Румынский, Словенский, Тайский, Турецкий
Видео: AVC/H.264, 1920x1080 (16:9), 24987 kbps, 23.976 fps
Аудио: AC3, 6 ch, 448 kbps - Русский
Аудио: AC3, 6 ch, 448 kbps - Итальянский
Аудио: AC3, 6 ch, 448 kbps - Венгерский
Аудио: AC3, 6 ch, 448 kbps - Португальский
Аудио: AC3, 6 ch, 448 kbps - Английский
Аудио: AC3, 6 ch, 640 kbps - Английский
Аудио: AC3, 2 ch, 192 kbps - Английский
Аудио: TrueHD, 8 ch, 4152 kbps - Английский

Список серий:

01: The Wars to Come / Грядущие войны
02: The House of Black and White / Черно-белый дом
03: High Sparrow / Его Воробейшество
04: The Sons of the Harpy / Сыны Гарпии
05: Kill the Boy / Убей мальчишку
06: Unbowed, Unbent, Unbroken / Непокорны, несгибаемы, не сломлены
07: The Gift / Дар
08: Hardhome / Суровый дом
09: The Dance of Dragons / Танец драконов
10: Mother's Mercy / Милосердие матери

Бонусы:

Audio Commentaries – Twelve audio commentaries with cast and crew including David Benioff, D.B. Weiss, Peter Dinklage, Lena Headey, Kit Harington, Nikolaj Coster-Waldau, Iain Glen, Maisie Williams, Natalie Dormer, Gwendoline Christie and more.
Anatomy of an Episode: Mother's Mercy – Details about the creation of "Mother's Mercy," from the writing table all the way through to visual effects
The Real History Behind Game of Thrones – In a two-part series, historians and George R.R. Martin discuss the era known as "The Wars of the Roses" and other historical events that served as inspiration for his novels
Deleted Scenes – 4 deleted scenes
A Day in the Life – Inside look at the production process of Season 5
New Characters/New Locations – Explore the new societies, cultures and locations from Season 5
The Dance of Dragons – An in-depth look at the story behind the Targaryen civil war
In-Episode Guide – Provides background information about on-screen characters, locations, and relevant histories
Histories and Lore – Explore the mythology of Westeros and Essos from character perspectives in 14 history pieces with feature illustrations

BDInfo DISC1:

DISC INFO:
Disc Title: GAME_OF_THRONES_S5_D1_HDCLUB
Disc Size: 36 167 607 159 bytes
Protection: AACS
BD-Java: Yes
BDInfo: 0.5.8
PLAYLIST REPORT:
Name: 00801.MPLS
Length: 0:55:34.748 (h:m:s.ms)
Size: 15 349 954 560 bytes
Total Bitrate: 36,82 Mbps
VIDEO:
Codec Bitrate Deion
----- ------- -----------
MPEG-4 AVC Video 24987 kbps 1080p / 23,976 fps / 16:9 / High Profile 4.1
MPEG-4 AVC Video 1000 kbps 480p / 23,976 fps / 16:9 / High Profile 3.2
AUDIO:
Codec Language Bitrate Deion
----- -------- ------- -----------
Dolby TrueHD Audio English 4152 kbps 7.1 / 48 kHz / 4152 kbps / 24-bit (AC3 Embedded: 5.1-EX / 48 kHz / 640 kbps)
Dolby Digital Audio English 640 kbps 5.1 / 48 kHz / 640 kbps
Dolby Digital Audio English 448 kbps 5.1 / 48 kHz / 448 kbps
Dolby Digital Audio Italian 448 kbps 5.1 / 48 kHz / 448 kbps
Dolby Digital Audio Russian 448 kbps 5.1 / 48 kHz / 448 kbps
Dolby Digital Audio Hungarian 256 kbps 2.0 / 48 kHz / 256 kbps / Dolby Surround
Dolby Digital Audio Portuguese 256 kbps 2.0 / 48 kHz / 256 kbps / Dolby Surround
Dolby Digital Plus Audio English 192 kbps 2.0 / 48 kHz / 192 kbps
SUBTITLES:
Codec Language Bitrate Deion
----- -------- ------- -----------
Presentation Graphics English 39,502 kbps
Presentation Graphics Chinese 28,778 kbps
Presentation Graphics Croatian 29,593 kbps
Presentation Graphics Hebrew 22,726 kbps
Presentation Graphics Hungarian 34,392 kbps
Presentation Graphics Italian 35,854 kbps
Presentation Graphics Korean 24,638 kbps
Presentation Graphics Portuguese 37,405 kbps
Presentation Graphics Portuguese 37,488 kbps
Presentation Graphics Romanian 33,013 kbps
Presentation Graphics Russian 32,341 kbps
Presentation Graphics Slovenian 29,297 kbps
Presentation Graphics Thai 24,458 kbps
Presentation Graphics Turkish 37,840 kbps
FILES:
Name Time In Length Size Total Bitrate
---- ------- ------ ---- -------------
00074.M2TS 0:00:00.000 0:55:34.748 15 349 954 560 36 824
PLAYLIST REPORT:
Name: 00800.MPLS
Length: 0:52:11.545 (h:m:s.ms)
Size: 14 409 302 016 bytes
Total Bitrate: 36,81 Mbps
VIDEO:
Codec Bitrate Deion
----- ------- -----------
MPEG-4 AVC Video 24986 kbps 1080p / 23,976 fps / 16:9 / High Profile 4.1
MPEG-4 AVC Video 1000 kbps 480p / 23,976 fps / 16:9 / High Profile 3.2
AUDIO:
Codec Language Bitrate Deion
----- -------- ------- -----------
Dolby TrueHD Audio English 4135 kbps 7.1 / 48 kHz / 4135 kbps / 24-bit (AC3 Embedded: 5.1-EX / 48 kHz / 640 kbps)
Dolby Digital Audio English 640 kbps 5.1 / 48 kHz / 640 kbps
Dolby Digital Audio English 448 kbps 5.1 / 48 kHz / 448 kbps
Dolby Digital Audio Italian 448 kbps 5.1 / 48 kHz / 448 kbps
Dolby Digital Audio Russian 448 kbps 5.1 / 48 kHz / 448 kbps
Dolby Digital Audio Hungarian 256 kbps 2.0 / 48 kHz / 256 kbps / Dolby Surround
Dolby Digital Audio Portuguese 256 kbps 2.0 / 48 kHz / 256 kbps / Dolby Surround
Dolby Digital Plus Audio English 192 kbps 2.0 / 48 kHz / 192 kbps
SUBTITLES:
Codec Language Bitrate Deion
----- -------- ------- -----------
Presentation Graphics English 34,570 kbps
Presentation Graphics Chinese 26,109 kbps
Presentation Graphics Croatian 27,402 kbps
Presentation Graphics Hebrew 20,903 kbps
Presentation Graphics Hungarian 32,511 kbps
Presentation Graphics Italian 34,718 kbps
Presentation Graphics Korean 21,830 kbps
Presentation Graphics Portuguese 33,701 kbps
Presentation Graphics Portuguese 34,466 kbps
Presentation Graphics Romanian 30,950 kbps
Presentation Graphics Russian 28,726 kbps
Presentation Graphics Slovenian 27,064 kbps
Presentation Graphics Thai 22,708 kbps
Presentation Graphics Turkish 35,148 kbps
FILES:
Name Time In Length Size Total Bitrate
---- ------- ------ ---- -------------
00045.M2TS 0:00:00.000 0:52:11.545 14 409 302 016 36 811

BDInfo DISC2:

DISC INFO:
Disc Title: GAME_OF_THRONES_S5_D2_HDCLUB
Disc Size: 45 166 859 369 bytes
Protection: AACS
BD-Java: Yes
BDInfo: 0.5.8
PLAYLIST REPORT:
Name: 00802.MPLS
Length: 0:59:56.801 (h:m:s.ms)
Size: 13 281 613 824 bytes
Total Bitrate: 29,54 Mbps
VIDEO:
Codec Bitrate Deion
----- ------- -----------
MPEG-4 AVC Video 17983 kbps 1080p / 23,976 fps / 16:9 / High Profile 4.1
MPEG-4 AVC Video 1000 kbps 480p / 23,976 fps / 16:9 / High Profile 3.2
AUDIO:
Codec Language Bitrate Deion
----- -------- ------- -----------
Dolby TrueHD Audio English 4082 kbps 7.1 / 48 kHz / 4082 kbps / 24-bit (AC3 Embedded: 5.1-EX / 48 kHz / 640 kbps)
Dolby Digital Audio English 640 kbps 5.1 / 48 kHz / 640 kbps
Dolby Digital Audio English 448 kbps 5.1 / 48 kHz / 448 kbps
Dolby Digital Audio Italian 448 kbps 5.1 / 48 kHz / 448 kbps
Dolby Digital Audio Russian 448 kbps 5.1 / 48 kHz / 448 kbps
Dolby Digital Audio Hungarian 256 kbps 2.0 / 48 kHz / 256 kbps / Dolby Surround
Dolby Digital Audio Portuguese 256 kbps 2.0 / 48 kHz / 256 kbps / Dolby Surround
Dolby Digital Plus Audio English 192 kbps 2.0 / 48 kHz / 192 kbps
SUBTITLES:
Codec Language Bitrate Deion
----- -------- ------- -----------
Presentation Graphics English 38,617 kbps
Presentation Graphics Chinese 28,209 kbps
Presentation Graphics Croatian 30,117 kbps
Presentation Graphics Hebrew 23,308 kbps
Presentation Graphics Hungarian 35,075 kbps
Presentation Graphics Italian 38,883 kbps
Presentation Graphics Korean 24,412 kbps
Presentation Graphics Portuguese 37,518 kbps
Presentation Graphics Portuguese 37,320 kbps
Presentation Graphics Romanian 33,231 kbps
Presentation Graphics Russian 31,535 kbps
Presentation Graphics Slovenian 29,617 kbps
Presentation Graphics Thai 24,333 kbps
Presentation Graphics Turkish 38,043 kbps
FILES:
Name Time In Length Size Total Bitrate
---- ------- ------ ---- -------------
00045.M2TS 0:00:00.000 0:59:56.801 13 281 613 824 29 541
PLAYLIST REPORT:
Name: 00804.MPLS
Length: 0:56:42.232 (h:m:s.ms)
Size: 12 467 423 232 bytes
Total Bitrate: 29,32 Mbps
VIDEO:
Codec Bitrate Deion
----- ------- -----------
MPEG-4 AVC Video 17988 kbps 1080p / 23,976 fps / 16:9 / High Profile 4.1
MPEG-4 AVC Video 1000 kbps 480p / 23,976 fps / 16:9 / High Profile 3.2
AUDIO:
Codec Language Bitrate Deion
----- -------- ------- -----------
Dolby TrueHD Audio English 4029 kbps 7.1 / 48 kHz / 4029 kbps / 24-bit (AC3 Embedded: 5.1-EX / 48 kHz / 640 kbps)
Dolby Digital Audio English 640 kbps 5.1 / 48 kHz / 640 kbps
Dolby Digital Audio English 448 kbps 5.1 / 48 kHz / 448 kbps
Dolby Digital Audio Italian 448 kbps 5.1 / 48 kHz / 448 kbps
Dolby Digital Audio Russian 448 kbps 5.1 / 48 kHz / 448 kbps
Dolby Digital Audio Hungarian 256 kbps 2.0 / 48 kHz / 256 kbps / Dolby Surround
Dolby Digital Audio Portuguese 256 kbps 2.0 / 48 kHz / 256 kbps / Dolby Surround
Dolby Digital Plus Audio English 192 kbps 2.0 / 48 kHz / 192 kbps
SUBTITLES:
Codec Language Bitrate Deion
----- -------- ------- -----------
Presentation Graphics English 30,665 kbps
Presentation Graphics Chinese 22,743 kbps
Presentation Graphics Croatian 24,414 kbps
Presentation Graphics Hebrew 18,299 kbps
Presentation Graphics Hungarian 28,179 kbps
Presentation Graphics Italian 28,048 kbps
Presentation Graphics Korean 20,296 kbps
Presentation Graphics Portuguese 30,283 kbps
Presentation Graphics Portuguese 29,589 kbps
Presentation Graphics Romanian 27,003 kbps
Presentation Graphics Russian 25,816 kbps
Presentation Graphics Slovenian 23,898 kbps
Presentation Graphics Thai 19,229 kbps
Presentation Graphics Turkish 30,111 kbps
FILES:
Name Time In Length Size Total Bitrate
---- ------- ------ ---- -------------
00075.M2TS 0:00:00.000 0:56:42.232 12 467 423 232 29 316
PLAYLIST REPORT:
Name: 00803.MPLS
Length: 0:50:25.647 (h:m:s.ms)
Size: 11 243 163 648 bytes
Total Bitrate: 29,73 Mbps
VIDEO:
Codec Bitrate Deion
----- ------- -----------
MPEG-4 AVC Video 17982 kbps 1080p / 23,976 fps / 16:9 / High Profile 4.1
MPEG-4 AVC Video 1000 kbps 480p / 23,976 fps / 16:9 / High Profile 3.2
AUDIO:
Codec Language Bitrate Deion
----- -------- ------- -----------
Dolby TrueHD Audio English 4365 kbps 7.1 / 48 kHz / 4365 kbps / 24-bit (AC3 Embedded: 5.1 / 48 kHz / 640 kbps)
Dolby Digital Audio English 640 kbps 5.1 / 48 kHz / 640 kbps
Dolby Digital Audio English 448 kbps 5.1 / 48 kHz / 448 kbps
Dolby Digital Audio Italian 448 kbps 5.1 / 48 kHz / 448 kbps
Dolby Digital Audio Russian 448 kbps 5.1 / 48 kHz / 448 kbps
Dolby Digital Audio Hungarian 256 kbps 2.0 / 48 kHz / 256 kbps / Dolby Surround
Dolby Digital Audio Portuguese 256 kbps 2.0 / 48 kHz / 256 kbps / Dolby Surround
Dolby Digital Plus Audio English 192 kbps 2.0 / 48 kHz / 192 kbps
SUBTITLES:
Codec Language Bitrate Deion
----- -------- ------- -----------
Presentation Graphics English 34,254 kbps
Presentation Graphics Chinese 25,672 kbps
Presentation Graphics Croatian 27,680 kbps
Presentation Graphics Hebrew 20,859 kbps
Presentation Graphics Hungarian 32,249 kbps
Presentation Graphics Italian 34,683 kbps
Presentation Graphics Korean 21,984 kbps
Presentation Graphics Portuguese 33,712 kbps
Presentation Graphics Portuguese 33,788 kbps
Presentation Graphics Romanian 30,859 kbps
Presentation Graphics Russian 28,893 kbps
Presentation Graphics Slovenian 27,323 kbps
Presentation Graphics Thai 21,252 kbps
Presentation Graphics Turkish 34,197 kbps
FILES:
Name Time In Length Size Total Bitrate
---- ------- ------ ---- -------------
00074.M2TS 0:00:00.000 0:50:25.647 11 243 163 648 29 728

BDInfo DISC3:

DISC INFO:
Disc Title: GAME_OF_THRONES_S5_D3_HDCLUB
Disc Size: 43 878 897 661 bytes
Protection: AACS
BD-Java: Yes
BDInfo: 0.5.8
PLAYLIST REPORT:
Name: 00807.MPLS
Length: 1:00:03.016 (h:m:s.ms)
Size: 14 047 444 992 bytes
Total Bitrate: 31,19 Mbps
VIDEO:
Codec Bitrate Deion
----- ------- -----------
MPEG-4 AVC Video 17990 kbps 1080p / 23,976 fps / 16:9 / High Profile 4.1
MPEG-4 AVC Video 1000 kbps 480p / 23,976 fps / 16:9 / High Profile 3.2
AUDIO:
Codec Language Bitrate Deion
----- -------- ------- -----------
Dolby TrueHD Audio English 4423 kbps 7.1 / 48 kHz / 4423 kbps / 24-bit (AC3 Embedded: 5.1-EX / 48 kHz / 640 kbps)
Dolby Digital Audio English 640 kbps 5.1 / 48 kHz / 640 kbps
Dolby Digital Audio English 448 kbps 5.1 / 48 kHz / 448 kbps
Dolby Digital Audio English 448 kbps 5.1 / 48 kHz / 448 kbps
Dolby Digital Audio English 448 kbps 5.1 / 48 kHz / 448 kbps
Dolby Digital Audio Italian 448 kbps 5.1 / 48 kHz / 448 kbps
Dolby Digital Audio Russian 448 kbps 5.1 / 48 kHz / 448 kbps
Dolby Digital Audio Hungarian 256 kbps 2.0 / 48 kHz / 256 kbps / Dolby Surround
Dolby Digital Audio Portuguese 256 kbps 2.0 / 48 kHz / 256 kbps / Dolby Surround
Dolby Digital Plus Audio English 192 kbps 2.0 / 48 kHz / 192 kbps
Dolby Digital Plus Audio English 192 kbps 2.0 / 48 kHz / 192 kbps
Dolby Digital Plus Audio English 192 kbps 2.0 / 48 kHz / 192 kbps
SUBTITLES:
Codec Language Bitrate Deion
----- -------- ------- -----------
Presentation Graphics English 32,318 kbps
Presentation Graphics Chinese 23,113 kbps
Presentation Graphics Croatian 24,729 kbps
Presentation Graphics Hebrew 18,917 kbps
Presentation Graphics Hungarian 27,931 kbps
Presentation Graphics Italian 31,660 kbps
Presentation Graphics Korean 20,110 kbps
Presentation Graphics Portuguese 30,863 kbps
Presentation Graphics Portuguese 30,640 kbps
Presentation Graphics Romanian 27,346 kbps
Presentation Graphics Russian 27,974 kbps
Presentation Graphics Slovenian 24,347 kbps
Presentation Graphics Thai 19,706 kbps
Presentation Graphics Turkish 30,380 kbps
FILES:
Name Time In Length Size Total Bitrate
---- ------- ------ ---- -------------
00130.M2TS 0:00:00.000 1:00:03.016 14 047 444 992 31 190
PLAYLIST REPORT:
Name: 00806.MPLS
Length: 0:58:51.819 (h:m:s.ms)
Size: 12 142 282 752 bytes
Total Bitrate: 27,50 Mbps
VIDEO:
Codec Bitrate Deion
----- ------- -----------
MPEG-4 AVC Video 17986 kbps 1080p / 23,976 fps / 16:9 / High Profile 4.1
AUDIO:
Codec Language Bitrate Deion
----- -------- ------- -----------
Dolby TrueHD Audio English 4003 kbps 7.1 / 48 kHz / 4003 kbps / 24-bit (AC3 Embedded: 5.1-EX / 48 kHz / 640 kbps)
Dolby Digital Audio English 640 kbps 5.1 / 48 kHz / 640 kbps
Dolby Digital Audio Italian 448 kbps 5.1 / 48 kHz / 448 kbps
Dolby Digital Audio Russian 448 kbps 5.1 / 48 kHz / 448 kbps
Dolby Digital Audio Hungarian 256 kbps 2.0 / 48 kHz / 256 kbps / Dolby Surround
Dolby Digital Audio Portuguese 256 kbps 2.0 / 48 kHz / 256 kbps / Dolby Surround
SUBTITLES:
Codec Language Bitrate Deion
----- -------- ------- -----------
Presentation Graphics English 33,368 kbps
Presentation Graphics Chinese 24,597 kbps
Presentation Graphics Croatian 26,529 kbps
Presentation Graphics Hebrew 19,708 kbps
Presentation Graphics Hungarian 30,405 kbps
Presentation Graphics Italian 31,613 kbps
Presentation Graphics Korean 21,595 kbps
Presentation Graphics Portuguese 32,968 kbps
Presentation Graphics Portuguese 32,218 kbps
Presentation Graphics Romanian 29,428 kbps
Presentation Graphics Russian 28,539 kbps
Presentation Graphics Slovenian 25,786 kbps
Presentation Graphics Thai 20,876 kbps
Presentation Graphics Turkish 31,791 kbps
FILES:
Name Time In Length Size Total Bitrate
---- ------- ------ ---- -------------
00129.M2TS 0:00:00.000 0:58:51.819 12 142 282 752 27 504
PLAYLIST REPORT:
Name: 00805.MPLS
Length: 0:53:42.052 (h:m:s.ms)
Size: 11 761 975 296 bytes
Total Bitrate: 29,20 Mbps
VIDEO:
Codec Bitrate Deion
----- ------- -----------
MPEG-4 AVC Video 17988 kbps 1080p / 23,976 fps / 16:9 / High Profile 4.1
MPEG-4 AVC Video 1000 kbps 480p / 23,976 fps / 16:9 / High Profile 3.2
AUDIO:
Codec Language Bitrate Deion
----- -------- ------- -----------
Dolby TrueHD Audio English 3921 kbps 7.1 / 48 kHz / 3921 kbps / 24-bit (AC3 Embedded: 5.1-EX / 48 kHz / 640 kbps)
Dolby Digital Audio English 640 kbps 5.1 / 48 kHz / 640 kbps
Dolby Digital Audio English 448 kbps 5.1 / 48 kHz / 448 kbps
Dolby Digital Audio Italian 448 kbps 5.1 / 48 kHz / 448 kbps
Dolby Digital Audio Russian 448 kbps 5.1 / 48 kHz / 448 kbps
Dolby Digital Audio Hungarian 256 kbps 2.0 / 48 kHz / 256 kbps / Dolby Surround
Dolby Digital Audio Portuguese 256 kbps 2.0 / 48 kHz / 256 kbps / Dolby Surround
Dolby Digital Plus Audio English 192 kbps 2.0 / 48 kHz / 192 kbps
SUBTITLES:
Codec Language Bitrate Deion
----- -------- ------- -----------
Presentation Graphics English 33,047 kbps
Presentation Graphics Chinese 24,663 kbps
Presentation Graphics Croatian 26,226 kbps
Presentation Graphics Hebrew 19,772 kbps
Presentation Graphics Hungarian 29,871 kbps
Presentation Graphics Italian 33,070 kbps
Presentation Graphics Korean 21,963 kbps
Presentation Graphics Portuguese 32,850 kbps
Presentation Graphics Portuguese 32,037 kbps
Presentation Graphics Romanian 29,219 kbps
Presentation Graphics Russian 28,127 kbps
Presentation Graphics Slovenian 25,781 kbps
Presentation Graphics Thai 20,732 kbps
Presentation Graphics Turkish 32,479 kbps
FILES:
Name Time In Length Size Total Bitrate
---- ------- ------ ---- -------------
00045.M2TS 0:00:00.000 0:53:42.052 11 761 975 296 29 204

BDInfo DISC4:

DISC INFO:
Disc Title: GAME_OF_THRONES_S5_D4_HDCLUB
Disc Size: 48 191 953 003 bytes
Protection: AACS
BD-Java: Yes
BDInfo: 0.5.8
PLAYLIST REPORT:
Name: 00809.MPLS
Length: 1:00:15.069 (h:m:s.ms)
Size: 12 831 191 040 bytes
Total Bitrate: 28,39 Mbps
VIDEO:
Codec Bitrate Deion
----- ------- -----------
MPEG-4 AVC Video 17063 kbps 1080p / 23,976 fps / 16:9 / High Profile 4.1
MPEG-4 AVC Video 1000 kbps 480p / 23,976 fps / 16:9 / High Profile 3.2
AUDIO:
Codec Language Bitrate Deion
----- -------- ------- -----------
Dolby TrueHD Audio English 4165 kbps 7.1 / 48 kHz / 4165 kbps / 24-bit (AC3 Embedded: 5.1-EX / 48 kHz / 640 kbps)
Dolby Digital Audio English 640 kbps 5.1 / 48 kHz / 640 kbps
Dolby Digital Audio English 448 kbps 5.1 / 48 kHz / 448 kbps
Dolby Digital Audio Italian 448 kbps 5.1 / 48 kHz / 448 kbps
Dolby Digital Audio Russian 448 kbps 5.1 / 48 kHz / 448 kbps
Dolby Digital Audio Hungarian 256 kbps 2.0 / 48 kHz / 256 kbps / Dolby Surround
Dolby Digital Audio Portuguese 256 kbps 2.0 / 48 kHz / 256 kbps / Dolby Surround
Dolby Digital Plus Audio English 192 kbps 2.0 / 48 kHz / 192 kbps
SUBTITLES:
Codec Language Bitrate Deion
----- -------- ------- -----------
Presentation Graphics English 25,675 kbps
Presentation Graphics Chinese 17,407 kbps
Presentation Graphics Croatian 18,921 kbps
Presentation Graphics Hebrew 13,794 kbps
Presentation Graphics Hungarian 21,547 kbps
Presentation Graphics Italian 24,652 kbps
Presentation Graphics Korean 15,736 kbps
Presentation Graphics Portuguese 22,414 kbps
Presentation Graphics Portuguese 23,509 kbps
Presentation Graphics Romanian 19,860 kbps
Presentation Graphics Russian 19,419 kbps
Presentation Graphics Slovenian 18,132 kbps
Presentation Graphics Thai 15,569 kbps
Presentation Graphics Turkish 22,006 kbps
FILES:
Name Time In Length Size Total Bitrate
---- ------- ------ ---- -------------
00074.M2TS 0:00:00.000 1:00:15.069 12 831 191 040 28 395
PLAYLIST REPORT:
Name: 00808.MPLS
Length: 0:52:22.973 (h:m:s.ms)
Size: 11 594 397 696 bytes
Total Bitrate: 29,51 Mbps
VIDEO:
Codec Bitrate Deion
----- ------- -----------
MPEG-4 AVC Video 16986 kbps 1080p / 23,976 fps / 16:9 / High Profile 4.1
MPEG-4 AVC Video 1000 kbps 480p / 23,976 fps / 16:9 / High Profile 3.2
AUDIO:
Codec Language Bitrate Deion
----- -------- ------- -----------
Dolby TrueHD Audio English 4578 kbps 7.1 / 48 kHz / 4578 kbps / 24-bit (AC3 Embedded: 5.1-EX / 48 kHz / 640 kbps)
Dolby Digital Audio English 640 kbps 5.1 / 48 kHz / 640 kbps
Dolby Digital Audio English 448 kbps 5.1 / 48 kHz / 448 kbps
Dolby Digital Audio English 448 kbps 5.1 / 48 kHz / 448 kbps
Dolby Digital Audio Italian 448 kbps 5.1 / 48 kHz / 448 kbps
Dolby Digital Audio Russian 448 kbps 5.1 / 48 kHz / 448 kbps
Dolby Digital Audio Hungarian 256 kbps 2.0 / 48 kHz / 256 kbps / Dolby Surround
Dolby Digital Audio Portuguese 256 kbps 2.0 / 48 kHz / 256 kbps / Dolby Surround
Dolby Digital Plus Audio English 192 kbps 2.0 / 48 kHz / 192 kbps
Dolby Digital Plus Audio English 192 kbps 2.0 / 48 kHz / 192 kbps
SUBTITLES:
Codec Language Bitrate Deion
----- -------- ------- -----------
Presentation Graphics English 28,731 kbps
Presentation Graphics Chinese 19,742 kbps
Presentation Graphics Croatian 20,844 kbps
Presentation Graphics Hebrew 16,587 kbps
Presentation Graphics Hungarian 24,106 kbps
Presentation Graphics Italian 26,982 kbps
Presentation Graphics Korean 17,112 kbps
Presentation Graphics Portuguese 26,731 kbps
Presentation Graphics Portuguese 26,826 kbps
Presentation Graphics Romanian 23,728 kbps
Presentation Graphics Russian 23,272 kbps
Presentation Graphics Slovenian 20,414 kbps
Presentation Graphics Thai 16,938 kbps
Presentation Graphics Turkish 26,306 kbps
FILES:
Name Time In Length Size Total Bitrate
---- ------- ------ ---- -------------
00045.M2TS 0:00:00.000 0:52:22.973 11 594 397 696 29 512
Скриншоты:
[Профиль] [ЛС]
Кто просматривает тему:

Показать сообщения:    

Текущее время: Сегодня 13:52

Часовой пояс: GMT



Вы не можете начинать темы
Вы не можете отвечать на сообщения
Вы не можете редактировать свои сообщения
Вы не можете удалять свои сообщения
Вы не можете голосовать в опросах
Вы не можете прикреплять файлы к сообщениям
Вы не можете скачивать файлы