Игра престолов / Game of Thrones (Сезон 5, Серия 1-10 из 10) (Алан Тейлор, Даниэль Минахан, Дэвид Наттер) [2015, Фэнтези, драма, приключения, экранизация , HDTVRip-AVC 1080p] [DD5.1] [MVO] [Amedia,AlexFilm,LostFilm, FOX,UATEAM + Subs Rus,ENG]

 
Автор Сообщение

Враг Нароода ®

Стаж: 1 год 8 месяцев

Сообщений: 110



Награды: 2 (Подробнее)

За внесенный вклад в развитие сайта (Количество: 1) Mega Seeder 1 (Количество: 1)
Торрент-статистика

Создавать темы 24-Апр-2015 15:46

[Цитировать]

-- --Игра престолов / Game of Thrones Сезон 5, Серия 1-10 из 10-- -- --Год выпуска: 2015
Выпущено:США, Великобритания, Bighead Littlehead, Created B
Жанр: Фэнтези, драма, приключения, экранизация
Продолжительность: 00:55:00
Сезон: 5
Серия: 1-10
Количество серий в сезоне: 10
Озвучка 1: Профессиональный многоголосый,Дубляж -Amedia
Озвучка 2: Профессиональный многоголосый -AlexFilm
Озвучка 3: Профессиональный многоголосый - LostFilm
Озвучка 4: Профессиональный многоголосый - FOX
Озвучка 5: Профессиональный многоголосый -UATEAM-Ukrainian
Субтитры: Русские, Английские--Сайт сериала:
--Режиссер: Алан Тейлор, Даниэль Минахан, Дэвид Наттер--В ролях:Лина Хиди, Питер Динклэйдж, Мишель Фэйрли, Эмилия Кларк, Кит Харингтон, Николай Костер-Валдау, Иэн Глен, Эйден Гиллен, Элфи Оуэн-Аллен, Мэйси Уильямс, Софи Тёрнер, Джек Глисон, Айзек Хемпстед-Райт, Ричард Мэдден, Джером Флинн, Конлет Хилл, Дональд Самптер, Рори МакКанн, Амрита Ачария, Чарльз Дэнс, Джон Брэдли, Кристиан Нэйрн, Сибель Кекилли, Джеймс Космо, Стивен Диллэйн, Гетин Энтони, Гвендолин Кристи, Натали Дормер, Уна Чаплин-- Война умыла кровью семь королевств. Победители ликуют, а проигравшие оплакивают близких и готовят план мести. Жестокой и коварной мести, которая страшнее даже самых свирепых драконов.-- --Качество : HDTVRip-AVC 1080p
Формат: MKV
Видео кодек: H264
Видео: 7694Кбит/сек,1920х1072(16.9),в 23.976кадр/сек,AVC(PAL)(High@L4)(CABAC/3 Ref Frames)
Аудио Кодек:AC3
Аудио #1:AC3 , 448 Kbps, 48.0 KHz, 6 ch- -Amedia
Аудио #2: AC3, 448 Kbps, 48.0 KHz, 6 ch - -AlexFilm
Аудио #3: AC3, 448 Kbps, 48.0 KHz, 6 ch - - LostFilm
Аудио #4: AC3, 448 Kbps, 48.0 KHz, 6 ch - - FOX
Аудио #5: AC3, 448 Kbps, 48.0 KHz,6 ch - -UATEAM-Ukrainian
Аудио #6: AC3, 448 Kbps, 48.0 KHz,6 ch - - English--

Доп. информация:

Звуковая дорожка сделана путем наложения чистого голоса озвучивателей на центральный канал оригинальной дорожки. Качество идентично звуковой дорожке.
--

Список эпизодов сезона


01: Грядущие войны / The Wars to Come
02: Чёрно-белый дом / The House of Black and White
03: Его Воробейшество / High Sparrow
04: Сыны Гарпии / The Sons Of The Harpy
05: Убей мальчика / Kill the Boy
06: Непреклонные, несгибаемые, несдающиеся / Unbowed, Unbent, Unbroken
07: Дар / The Gift
08: Суровый дом / Hardhome
09: Танец драконов / The Dance of Dragons
10: Милость МатериMother's Mercy
--

MediaInfo сезона

Общее
Уникальный идентификатор : 231635529068042877320392704936328395413 (0xAE436152457C5ADECE0883F248857A95)
Полное имя : D:\ИГРА ПРЕСТОЛОВ\GAME_OF_THRONES_2015_S05_RUS_UKR_ENG[Amedia_AlexFilm_LostFilm_ FOX_UATEAM]_H264_DD5.1_Nikolai.Baranov_HDTVRip-AVC_1080p\Game_of_Thrones_S05Е01_RUS_UKR_ENG[Amedia_AlexFilm_LostFilm_ FOX_UATEAM]_[H264_DD5.1_N.B]_HD-AVC_1080p.mkv
Формат : Matroska
Версия формата : Version 1
Размер файла : 3,86 Гбайт
Продолжительность : 52 м.
Режим общего битрейта : Переменный
Общий поток : 10,6 Мбит/сек
Программа кодирования : DivXMKVMux 9.9.13.1955
Библиотека кодирования : libDivXMediaFormat 4.0.0.0578
Видео
Идентификатор : 1
Формат : AVC
Формат/Информация : Advanced Video Codec
Профиль формата : High@L4
Параметр CABAC формата : Да
Параметр ReFrames формата : 3 кадра
Идентификатор кодека : V_MPEG4/ISO/AVC
Продолжительность : 52 м.
Вид битрейта : Переменный
Битрейт : 7694 Кбит/сек
Максимальный битрейт : 20,0 Мбит/сек
Ширина : 1920 пикселей
Высота : 1072 пикселя
Соотношение сторон : 16:9
Режим частоты кадров : Постоянный
Частота кадров : 23,976 кадра/сек
Стандарт вещания : PAL
Цветовое пространство : YUV
Субдискретизация насыщенности : 4:2:0
Битовая глубина : 8 бит
Тип развёртки : Прогрессивная
Бит/(Пиксели*Кадры) : 0.156
Размер потока : 2,80 Гбайт (73%)
Язык : English
Default : Да
Forced : Нет
Цветовой диапазон : Limited
Основные цвета : BT.709
Характеристики трансфера : BT.709
Коэффициенты матрицы : BT.709
Аудио #1
Идентификатор : 2
Формат : AC-3
Формат/Информация : Audio Coding 3
Расширение режима : CM (complete main)
Параметр Endianness формата : Big
Идентификатор кодека : A_AC3
Продолжительность : 52 м.
Вид битрейта : Постоянный
Битрейт : 448 Кбит/сек
Каналы : 6 каналов
Расположение каналов : Front: L C R, Side: L R, LFE
Частота : 48,0 КГц
Битовая глубина : 16 бит
Метод сжатия : С потерями
Размер потока : 167 Мбайт (4%)
Язык : English
Default : Да
Forced : Нет
Аудио #2
Идентификатор : 3
Формат : AC-3
Формат/Информация : Audio Coding 3
Расширение режима : CM (complete main)
Параметр Endianness формата : Big
Идентификатор кодека : A_AC3
Продолжительность : 52 м.
Вид битрейта : Постоянный
Битрейт : 448 Кбит/сек
Каналы : 6 каналов
Расположение каналов : Front: L C R, Side: L R, LFE
Частота : 48,0 КГц
Битовая глубина : 16 бит
Метод сжатия : С потерями
Размер потока : 167 Мбайт (4%)
Язык : English
Default : Нет
Forced : Нет
Аудио #3
Идентификатор : 4
Формат : AC-3
Формат/Информация : Audio Coding 3
Расширение режима : CM (complete main)
Параметр Endianness формата : Big
Идентификатор кодека : A_AC3
Продолжительность : 52 м.
Вид битрейта : Постоянный
Битрейт : 448 Кбит/сек
Каналы : 6 каналов
Расположение каналов : Front: L C R, Side: L R, LFE
Частота : 48,0 КГц
Битовая глубина : 16 бит
Метод сжатия : С потерями
Размер потока : 167 Мбайт (4%)
Язык : English
Default : Нет
Forced : Нет
Аудио #4
Идентификатор : 5
Формат : AC-3
Формат/Информация : Audio Coding 3
Расширение режима : CM (complete main)
Параметр Endianness формата : Big
Идентификатор кодека : A_AC3
Продолжительность : 52 м.
Вид битрейта : Постоянный
Битрейт : 448 Кбит/сек
Каналы : 6 каналов
Расположение каналов : Front: L C R, Side: L R, LFE
Частота : 48,0 КГц
Битовая глубина : 16 бит
Метод сжатия : С потерями
Размер потока : 167 Мбайт (4%)
Язык : English
Default : Нет
Forced : Нет
Аудио #5
Идентификатор : 6
Формат : AC-3
Формат/Информация : Audio Coding 3
Расширение режима : CM (complete main)
Параметр Endianness формата : Big
Идентификатор кодека : A_AC3
Продолжительность : 52 м.
Вид битрейта : Постоянный
Битрейт : 448 Кбит/сек
Каналы : 6 каналов
Расположение каналов : Front: L C R, Side: L R, LFE
Частота : 48,0 КГц
Битовая глубина : 16 бит
Метод сжатия : С потерями
Размер потока : 167 Мбайт (4%)
Язык : English
Default : Нет
Forced : Нет
Аудио #6
Идентификатор : 7
Формат : AC-3
Формат/Информация : Audio Coding 3
Расширение режима : CM (complete main)
Параметр Endianness формата : Big
Идентификатор кодека : A_AC3
Продолжительность : 52 м.
Вид битрейта : Постоянный
Битрейт : 448 Кбит/сек
Каналы : 6 каналов
Расположение каналов : Front: L C R, Side: L R, LFE
Частота : 48,0 КГц
Битовая глубина : 16 бит
Метод сжатия : С потерями
Размер потока : 167 Мбайт (4%)
Язык : English
Default : Нет
Forced : Нет
Текст
Идентификатор : 8
Формат : ASS
Идентификатор кодека : S_TEXT/ASS
Идентификатор кодека/Информация : Advanced Sub Station Alpha
Метод сжатия : Без потерь
Язык : Russian
Default : Да
Forced : Нет
--

Скриншоты

-- --Внимание! В сериале присутствуют сцены с обнаженной натурой!--

Как закачать отдельный файл

1. Открыть торрент
2. Снять галки с тех файлов торрента, которые мы не хотим закачивать. Оставляем только на нужных нам файлах (файле).
3. Нажать О.К.
В клиенте utorrent
Инструкция
1) Открыть торрент

2) Снять галки с тех файлов торрента, которые мы не хотим закачивать:
* либо вручную, снимая с каждого файла галку( скрин №1)
* либо, нажав кнопку "Снять метки (Select None)", сняв сразу со всех файлов(скрин №2)
№1

№2

Оставляем только на нужных нам файлах (файле).

3)Нажать О.К
-- -- --Внимание!!! 20.06. 2015. РАЗДАЧА ОБНОВЛЕНА. ФИНАЛ ССЕЗОНА.ОБНОВИТЕ ТОРЕНТ ФАЙЛ.ПРИЯТНОГО ПРОСМОТРА . --Релиз от: Nikolai.Baranov -- -- -- --
[Профиль] [ЛС]
Кто просматривает тему:

Показать сообщения:    

Текущее время: Сегодня 02:40

Часовой пояс: GMT



Вы не можете начинать темы
Вы не можете отвечать на сообщения
Вы не можете редактировать свои сообщения
Вы не можете удалять свои сообщения
Вы не можете голосовать в опросах
Вы не можете прикреплять файлы к сообщениям
Вы не можете скачивать файлы