Игра престолов / Game of Thrones (Сезон 5, Серия 1-10 из 10) (Алан Тейлор, Даниэль Минахан, Дэвид Наттер) [2015, Фэнтези, драма, приключения, экранизация , HDTVRip-AVC 1080p] [DD5.1] [MVO] [AlexFilm+ Subs Rus,ENG]

 
Автор Сообщение

Враг Нароода ®

Стаж: 1 год 8 месяцев

Сообщений: 110



Награды: 2 (Подробнее)

За внесенный вклад в развитие сайта (Количество: 1) Mega Seeder 1 (Количество: 1)
Торрент-статистика

Создавать темы 18-Апр-2015 13:38

[Цитировать]

-- --Игра престолов / Game of Thrones Сезон 5, Серия 1-1-10 из 10-- --Год выпуска: 2015
Выпущено:США, Великобритания, Bighead Littlehead, Created B
Жанр: Фэнтези, драма, приключения, экранизация
Продолжительность: 00:55:00
Сезон: 5
Серия:1-1-10
Количество серий в сезоне: 10
Перевод: Александр Митраков (Opel), Илья Белкин (Volverine73)
& Westeros.ru (форум Ночного Дозора у Стены)

Монтаж и сведение звука: Михаил Шорыгин
Озвучка:Профессиональная многоголосая закадровая(AlexFilm)Евгения Тихонова
Анна Тух (1-6)
Татьяна Еленева (7-10)
Пётр Иващенко (Гланц)
Александр Воронов
Александр Дасевич
Константин Погодаев
Михаил Суслов

Субтитры: Русские, английские--Сайт сериала:
--Режиссер: Алан Тейлор, Даниэль Минахан, Дэвид Наттер--В ролях:Лина Хиди, Питер Динклэйдж, Мишель Фэйрли, Эмилия Кларк, Кит Харингтон, Николай Костер-Валдау, Иэн Глен, Эйден Гиллен, Элфи Оуэн-Аллен, Мэйси Уильямс, Софи Тёрнер, Джек Глисон, Айзек Хемпстед-Райт, Ричард Мэдден, Джером Флинн, Конлет Хилл, Дональд Самптер, Рори МакКанн, Амрита Ачария, Чарльз Дэнс, Джон Брэдли, Кристиан Нэйрн, Сибель Кекилли, Джеймс Космо, Стивен Диллэйн, Гетин Энтони, Гвендолин Кристи, Натали Дормер, Уна Чаплин-- Война умыла кровью семь королевств. Победители ликуют, а проигравшие оплакивают близких и готовят план мести. Жестокой и коварной мести, которая страшнее даже самых свирепых драконов.-- --Качество : HDTVRip-AVC 1080p
Формат: MPEG-4
Видео кодек: H264
Видео: 7259Кбит/сек,1920х1080(16.9),в 25.000кадр/сек,AVC(Baseline@L4.0)(1Ref Frames)
Аудио кодек: AAC
Аудио Russian Dolby Digital 5.1:384Кбит/сек,48.0КГц,6каналов,AAC,(Version4)(LC)
Отдельным Файлом
Аудио #1:AC3 , 640 Kbps, 48.0 KHz, 6 ch- - FOX
Аудио #2: AC3, 640 Kbps, 48.0 KHz, 6 ch - - LostFilm
Аудио #3: AC3, 640 Kbps, 48.0 KHz, 6 ch - -AlexFilm
Аудио #4: AC3, 640 Kbps, 48.0 KHz, 6 ch - -Amedia
Аудио #5: AC3, 640 Kbps, 48.0 KHz, 6 ch - -Ideafilm
Аудио #6: AC3, 640 Kbps, 48.0 KHz,6 ch - - Omikron-Ukrainian
Аудио #7: AC3, 640 Kbps, 48.0 KHz,6 ch - - English--

Доп. информация:

Звуковая дорожка сделана путем наложения чистого голоса озвучивателей на центральный канал оригинальной дорожки. Качество идентично звуковой дорожке.
--

Список эпизодов сезона


01: Грядущие войны / The Wars to Come
02: Чёрно-белый дом / The House of Black and White
03: Его Воробейшество / High Sparrow
04: Сыны Гарпии / The Sons Of The Harpy
05: Убей мальчика / Kill the Boy
06: Непреклонные, несгибаемые, несдающиеся / Unbowed, Unbent, Unbroken
07: Дар / The Gift
08: Суровый дом / Hardhome
09: Танец драконов / The Dance of Dragons
10: Милость МатериMother's Mercy
--

MediaInfo сезона

Общее
Полное имя : F:\С Е Р И А Л Ы\ИГРА ПРЕСТОЛОВ\GAME_OF_THRONES_2015_S05_RUS[AlexFilm]_DD5.1_x264_Nikolai.Baranov_HDTVRip-AVC_(1080p)\GAME_OF_THRONES_S05Е01_RUS[AlexFilm]_DD5.1_x264_Nikolai.Baranov_HDTVRip-AVC_(1080p).mp4
Формат : MPEG-4
Профиль формата : Base Media
Идентификатор кодека : isom
Размер файла : 2,78 Гбайт
Продолжительность : 52 м.
Режим общего битрейта : Переменный
Общий поток : 7644 Кбит/сек
Название фильма : Game of Thrones 5x01 @ AlexFilm
Дата кодирования : UTC 2015-04-14 23:33:55
Дата пометки : UTC 2015-04-14 23:33:55
Программа кодирования : Lavf51.12.1
Видео
Идентификатор : 1
Формат : AVC
Формат/Информация : Advanced Video Codec
Профиль формата : Baseline@L4.0
Параметр CABAC формата : Нет
Параметр ReFrames формата : 1 кадр
Параметр GOP формата : M=1, N=12
Идентификатор кодека : avc1
Идентификатор кодека/Информация : Advanced Video Coding
Продолжительность : 52 м.
Вид битрейта : Переменный
Битрейт : 7259 Кбит/сек
Максимальный битрейт : 10,5 Мбит/сек
Ширина : 1920 пикселей
Высота : 1080 пикселей
Соотношение сторон : 16:9
Режим частоты кадров : Постоянный
Частота кадров : 25,000 кадров/сек
Частота кадров в оригинале : 24,000 кадра/сек
Цветовое пространство : YUV
Субдискретизация насыщенности : 4:2:0
Битовая глубина : 8 бит
Тип развёртки : Прогрессивная
Бит/(Пиксели*Кадры) : 0.140
Размер потока : 2,64 Гбайт (95%)
Язык : English
Дата кодирования : UTC 2015-04-14 23:33:55
Дата пометки : UTC 2015-04-14 23:33:55
Аудио
Идентификатор : 2
Формат : AAC
Формат/Информация : Advanced Audio Codec
Профиль формата : LC
Идентификатор кодека : 40
Продолжительность : 52 м.
Вид битрейта : Переменный
Битрейт : 384 Кбит/сек
Каналы : 2 канала
Channel(s)_Original : 6 каналов
Расположение каналов : Front: L C R, Side: L R, LFE
Частота : 48,0 КГц
Метод сжатия : С потерями
Размер потока : 142 Мбайт (5%)
Язык : Russian
Дата кодирования : UTC 2015-04-14 23:33:55
Дата пометки : UTC 2015-04-14 23:33:55
--

Скриншоты

-- --Внимание! В сериале присутствуют сцены с обнаженной натурой!--

Как закачать отдельный файл

1. Открыть торрент
2. Снять галки с тех файлов торрента, которые мы не хотим закачивать. Оставляем только на нужных нам файлах (файле).
3. Нажать О.К.
В клиенте utorrent
Инструкция
1) Открыть торрент

2) Снять галки с тех файлов торрента, которые мы не хотим закачивать:
* либо вручную, снимая с каждого файла галку( скрин №1)
* либо, нажав кнопку "Снять метки (Select None)", сняв сразу со всех файлов(скрин №2)
№1

№2

Оставляем только на нужных нам файлах (файле).

3)Нажать О.К
-- -- --Внимание!!! 19.06. 2015. РАЗДАЧА ОБНОВЛЕНА. ФИНАЛ ССЕЗОНА.ОБНОВИТЕ ТОРЕНТ ФАЙЛ.ПРИЯТНОГО ПРОСМОТРА . --Релиз от: Nikolai.Baranov -- -- -- --
[Профиль] [ЛС]
Кто просматривает тему:

Показать сообщения:    

Текущее время: Сегодня 14:30

Часовой пояс: GMT



Вы не можете начинать темы
Вы не можете отвечать на сообщения
Вы не можете редактировать свои сообщения
Вы не можете удалять свои сообщения
Вы не можете голосовать в опросах
Вы не можете прикреплять файлы к сообщениям
Вы не можете скачивать файлы