Игра по чужим правилам / Путь к славе / Glory Road (Джеймс Гартнер / James Gartner) [2006, драма, комедия, спорт, BDRip] MVO

 
Автор Сообщение

painkiller ®

Стаж: 2 года 3 месяца

Сообщений: 582



Награды: Нет

Торрент-статистика

Создавать темы 15-Авг-2014 01:07

[Цитировать]

Игра по чужим правилам / Путь к славе / Glory Road«The incredible story of the team that changed the game forever»- Страна: США
Жанр: драма, комедия, спорт
Год выпуска: 2006
Продолжительность: 01:58:15-Перевод: Профессиональный (многоголосый, закадровый)
Cубтитры: отсутствуют-Режиссер: Джеймс Гартнер / James Gartner
В ролях: Джош Лукас, Дерек Люк, Остин Николс, Джон Войт, Ивэн Джонс, Шин А.С. Керр, Альфонсо МакОли, Мехкад Брукс, Сэм Джонс III, Дэмейн Рэдклифф, Эмили Дешанель, Аль Ширер-Описание:
История тренера студенческой баскетбольной команды из Техаса Дона Хэскинса, который в 1966 году набрал в нее темнокожих игроков (для того времени это было революционным новшеством) и в итоге привел ее к победе в чемпионате…
-
Download sample-Качество видео: BDRip | исх. BDRemux 1080p
Формат видео: AVI-Видео: 688x288 (2.39:1), 23.976 fps, XviD build 73 ~752 kbps avg, 0.16 bit/pixel
Аудио: 48 kHz, MPEG Layer 3, 2 ch, ~128.00 kbps avg | Профессиональный (многоголосый, закадровый)-

MediaInfo

General
Complete name : D:\Фильмы\Рипы\Glory.Road.2006.BDRip.745.Mb.by Fredd Kruger.avi
Format : AVI
Format/Info : Audio Video Interleave
File size : 752 MiB
Duration : 1h 58mn
Overall bit rate : 889 Kbps
Writing application : VirtualDubMod 1.5.10.3 | www.virtualdub-fr.org || (build 2550/release)
Writing library : VirtualDubMod build 2550/release
Video
ID : 0
Format : MPEG-4 Visual
Format profile : Advanced Simple@L5
Format settings, BVOP : 1
Format settings, QPel : No
Format settings, GMC : No warppoints
Format settings, Matrix : Custom
Codec ID : XVID
Codec ID/Hint : XviD
Duration : 1h 58mn
Bit rate : 752 Kbps
Width : 688 pixels
Height : 288 pixels
Display aspect ratio : 2.40:1
Frame rate : 23.976 fps
Color space : YUV
Chroma subsampling : 4:2:0
Bit depth : 8 bits
Scan type : Progressive
Compression mode : Lossy
Bits/(Pixel*Frame) : 0.158
Stream size : 636 MiB (85%)
Writing library : XviD 73
Audio
ID : 1
Format : MPEG Audio
Format version : Version 1
Format profile : Layer 3
Codec ID : 55
Codec ID/Hint : MP3
Duration : 1h 57mn
Bit rate mode : Constant
Bit rate : 128 Kbps
Channel count : 2 channels
Sampling rate : 48.0 KHz
Compression mode : Lossy
Stream size : 108 MiB (14%)
Alignment : Aligned on interleaves
Interleave, duration : 42 ms (1.00 video frame)
Interleave, preload duration : 504 ms
Writing library : L3.99r
Encoding settings : -m s -V 4 -q 0 -lowpass 17 -b 128

Screenshots

Comparisonhttp://torrentfilm.net/forum/viewtopic.php?t=2934804 http://screenshotcomparison.com/comparison/68011/picture:0
[Профиль] [ЛС]

Создавать темы 06-Авг-2015 23:13 (спустя 11 месяцев 22 дня)

Топик был перенесен из форума Фильмы до 2014 года в форум Фильмы до 2012 года
sergej644
 
Кто просматривает тему:

Показать сообщения:    

Текущее время: Сегодня 14:54

Часовой пояс: GMT



Вы не можете начинать темы
Вы не можете отвечать на сообщения
Вы не можете редактировать свои сообщения
Вы не можете удалять свои сообщения
Вы не можете голосовать в опросах
Вы не можете прикреплять файлы к сообщениям
Вы не можете скачивать файлы