Игра по правилам / Fair Play (Андреа Седлачкова / Andrea Sedlácková) [2014, Чехия, Словакия, Германия, Драма, спорт, HDRip] VO (PashaUp)

 
Автор Сообщение

TorrentFilm ®

Пол:

Стаж: 2 года

Сообщений: 7741



Награды: Нет

Торрент-статистика

Создавать темы 21-Дек-2014 02:15

[Цитировать]

Игра по правилам / Fair Play
Страна: Чехия, Словакия, Германия
Жанр: Драма, спорт
Год выпуска: 2014
Продолжительность: 01:38:40
Перевод: Одноголосый закадровый PashaUp по тексту Станислава Белькова
Cубтитры: нет
Режиссер: Андреа Седлачкова / Andrea Sedlácková
В ролях: Юдит Бардос, Анна Гейслерова, Роман Лукнар, Ева Йозефикова, Властина Сваткова, Игорь Бареш
Описание: Анна Моравцова профессионально занимается легкой атлетикой, а ее мать — успешная в прошлом теннисистка, и ей не понаслышке известно, что ради спорта порой приходится переступать через себя. Однажды руководство назначает Анне продолжительный курс препарата, который наращивает мышцы и способствует быстрому восстановлению организма после изнурительных тренировок. Анна во что бы то ни стало стремится попасть на Олимпиаду в Лос-Анджелесе, поэтому соглашается не задумываясь. Так или иначе, в Чехии 80-ых годов возражения не принимаются. Мать, тайно копирующая антиправительственные тексты бывшего любовника, знает об этом, как никто другой…

Качество видео: HDRip
Формат видео: AVI
Видео: 720x304 (2.37:1), 24.000 fps, XviD build 50 ~1527 kbps avg, 0.29 bit/pixel
Аудио: 48 kHz, AC3 Dolby Digital, 3/2 (L,C,R,l,r) + LFE ch, ~448 kbps

MediaInfo

General
Complete name : E:\Films\New\Igra.po.pravilam.2014.avi
Format : AVI
Format/Info : Audio Video Interleave
File size : 1.37 GiB
Duration : 1h 38mn
Overall bit rate : 1 985 Kbps
Writing application : VirtualDubMod 1.5.10.2 (build 2542/release)
Writing library : VirtualDubMod build 2542/release
Video
ID : 0
Format : MPEG-4 Visual
Format profile : Advanced Simple@L5
Format settings, BVOP : 1
Format settings, QPel : No
Format settings, GMC : No warppoints
Format settings, Matrix : Default (MPEG)
Codec ID : XVID
Codec ID/Hint : XviD
Duration : 1h 38mn
Bit rate : 1 527 Kbps
Width : 720 pixels
Height : 304 pixels
Display aspect ratio : 2.35:1
Frame rate : 24.000 fps
Color space : YUV
Chroma subsampling : 4:2:0
Bit depth : 8 bits
Scan type : Progressive
Compression mode : Lossy
Bits/(Pixel*Frame) : 0.291
Stream size : 1.05 GiB (77%)
Writing library : XviD 1.2.1 (UTC 2008-12-04)
Audio
ID : 1
Format : AC-3
Format/Info : Audio Coding 3
Mode extension : CM (complete main)
Format settings, Endianness : Big
Codec ID : 2000
Duration : 1h 38mn
Bit rate mode : Constant
Bit rate : 448 Kbps
Channel(s) : 6 channels
Channel positions : Front: L C R, Side: L R, LFE
Sampling rate : 48.0 KHz
Bit depth : 16 bits
Compression mode : Lossy
Stream size : 316 MiB (23%)
Alignment : Split accross interleaves
Interleave, duration : 42 ms (1.00 video frame)
Interleave, preload duration : 500 ms

Скриншоты

Игра по правилам / Fair Play
[Профиль] [ЛС]
Кто просматривает тему:

Показать сообщения:    

Текущее время: Сегодня 21:01

Часовой пояс: GMT



Вы не можете начинать темы
Вы не можете отвечать на сообщения
Вы не можете редактировать свои сообщения
Вы не можете удалять свои сообщения
Вы не можете голосовать в опросах
Вы не можете прикреплять файлы к сообщениям
Вы не можете скачивать файлы