Игра по-крупному / War, Inc. (Джошуа Сэфтел / Joshua Seftel) [2008 г., США, Триллер, Комедия, HDRip] AVO (Карповский)

 
Автор Сообщение

painkiller ®

Стаж: 2 года 3 месяца

Сообщений: 582



Награды: Нет

Торрент-статистика

Создавать темы 14-Авг-2014 09:12

[Цитировать]

Игра по-крупному / War, Inc.
Год выпуска: 2008
Страна: США
Жанр: Триллер, Комедия
Продолжительность: 1:46:52
Перевод: Авторский (одноголосый закадровый), Антон Карповский
Cубтитры: нет
Режиссер: Джошуа Сэфтел / Joshua Seftel
В ролях: Джон Кьюсак /John Cusack/, Хилари Дафф /Hilary Duff/, Мариса Томей /Marisa Tomei/, Джоан Кьюсак /Joan Cusack/, Дэн Эйкройд /Dan Aykroyd/, Сергей Трифунович /Sergej Trifunovic/
Описание: Мощные транснациональные корпорации имеют не только огромные активы. Они располагают и мощными «частными армиями», которые способны вести «хорошую» войну в любой части «третьего мира». Брэнд Хаузер - супер-агент корпорации «Тамерлан». Устранив в Канаде людей, неугодных его боссам, он уже вскоре - в жаркой азиатской стране Туракистан, охваченной междоусобной войной и оккупированной войсками «Тамерлана». Здесь Хаузер должен устранить видного местного деятеля, используя как прикрытие большое шоу, кульминацией которого должна стать свадьба поп-звезды с сынком местного магната.
Но на этот раз хаос, в который корпорация «Тамерлан» погрузила несчастную страну, выводит из себя и невозмутимого супермена. К тому же его сердце начинает разрываться между двумя возлюбленными… Когда же выясняется, что, покинув много лет назад ЦРУ, он на самом деле все равно работал на «подонков из Лэнгли», Брэнд начинает свою собственную войну!
Исходник видео:
Качество видео: HDRip
Формат видео: AVI
Видео кодек: XviD
Аудио кодек: AC3
Видео: 720x304, 23,976 fps, 1565 kbps
Аудио: 48000Hz, DD 5.1, 384 kbps
Скачать: SAMPLE 22.70MB
Доп. информация: За перевод, данного фильма у Антона Карповского, выражается благодарность пользователям форума hdtracker: Dr. Destructo, KpucTo161, Role, SavineX, ZeRoNe, zeleniydzhan, MeGUI, Guyver, Wolf_Larsen, feldeger, vadamk, mamachucha66, Xerman13, shtift, Jiraya87, arvideo.
P.S.: Всех кто располагает переводами Антона Карповского попрошу в эту тему.

MediaInfo

Формат : AVI
Формат/Информация : Audio Video Interleave
Размер файла : 1,46 Гбайт
Продолжительность : 1 ч. 46 м.
Общий поток : 1958 Кбит/сек
Программа кодирования : VirtualDubMod 1.5.4.1 (build 2178/release)
Библиотека кодирования : VirtualDubMod build 2178/release
Видео
Идентификатор : 0
Формат : MPEG-4 Visual
Профиль формата : Advanced Simple@L5
Параметр BVOP формата : 1
Параметр QPel формата : Нет
Параметр GMC формата : Без точки перехода
Параметр матрицы формата : Default (MPEG)
Идентификатор кодека : XVID
Идентификатор кодека/Подсказка : XviD
Продолжительность : 1 ч. 46 м.
Битрейт : 1565 Кбит/сек
Ширина : 720 пикселей
Высота : 304 пикселя
Соотношение сторон : 2,35:1
Частота кадров : 23,976 кадра/сек
Цветовое пространство : YUV
Субдискретизация насыщенности : 4:2:0
Битовая глубина : 8 бит
Тип развёртки : Прогрессивная
Метод сжатия : С потерями
Бит/(Пиксели*Кадры) : 0.298
Размер потока : 1,17 Гбайт (80%)
Библиотека кодирования : XviD 1.2.1 (UTC 2008-12-04)
Аудио
Идентификатор : 1
Формат : AC-3
Формат/Информация : Audio Coding 3
Расширение режима : CM (complete main)
Параметр Endianness формата : Big
Идентификатор кодека : 2000
Продолжительность : 1 ч. 46 м.
Вид битрейта : Постоянный
Битрейт : 384 Кбит/сек
Каналы : 6 каналов
Расположение каналов : Front: L C R, Side: L R, LFE
Частота : 48,0 КГц
Битовая глубина : 16 бит
Метод сжатия : С потерями
Размер потока : 294 Мбайт (20%)
Выравнивание : Разделение по промежуткам
Продолжительность промежутка : 42 мс. (1,00 видеокадр)
Время предзагрузки промежутка : 500 мс.

Скриншоты

[Профиль] [ЛС]

Создавать темы 06-Авг-2015 23:15 (спустя 11 месяцев 23 дня)

Топик был перенесен из форума Фильмы до 2014 года в форум Фильмы до 2012 года
sergej644
 

Создавать темы 12-Июн-2016 08:50 (спустя 1 год 9 месяцев)

Топик был перенесен из форума Фильмы 2011 года в форум Фильмы 2006-2008 года
Russian Mafia
 
Кто просматривает тему:

Показать сообщения:    

Текущее время: Сегодня 14:02

Часовой пояс: GMT



Вы не можете начинать темы
Вы не можете отвечать на сообщения
Вы не можете редактировать свои сообщения
Вы не можете удалять свои сообщения
Вы не можете голосовать в опросах
Вы не можете прикреплять файлы к сообщениям
Вы не можете скачивать файлы