Игра на понижение / The Big Short (2015) DVD5

 
Автор Сообщение

BOSS ®

Пол:

Стаж: 2 года 1 месяц

Сообщений: 3729

Откуда: ODESSA



Награды: 20 (Подробнее)

За внесенный вклад в развитие сайта (Количество: 1) Top Releaser 2 (Количество: 1) Mega Releaser 1 (Количество: 1)
Торрент-статистика

Создавать темы 29-Май-2016 19:29

[Цитировать]

--Информация о фильме
Название: Игра на понижение
Оригинальное название: The Big Short
Год выхода: 2015
Жанр: драма, комедия, биография, история
Режиссер: Адам МакКей
В ролях: Кристиан Бэйл, Стив Карелл, Райан Гослинг, Брэд Питт, Мелисса Лео, Хамиш Линклэйтер, Джон Магаро, Рейф Сполл, Джереми Стронг, Мариса Томей-О фильме:
Когда речь идет о деньгах, совесть молчит. А уж если речь об огромных деньгах!.. Это основанная на реальных событиях история нескольких провидцев, которые независимо друг от друга предсказали мировой экономический кризис 2008 года задолго до того, как о нем зашептались в кулуарах на Уолл-стрит. И предсказав, стали на нем зарабатывать. Сами того не желая.- -Страна: США
Студия: Plan B Entertainment, Regency Enterprises
Продолжительность: 125 мин. / 02:05
Перевод: полное дублирование-Файл
Кодек: MPEG2
Качество: DVD5 (сжатый)
Видео: PAL 16:9 (720x576@1024x576) VBR 4036 Kbps, 25.000 fps
Аудио: Dolby AC3, 6 ch, 48.0 KHz, 448 Kbps (русский, английский)
Субтитры: русские, украинские, английские--

Процесс изготовления диска

Исходник: Игра на понижение / The Big Short (2015) DVD9 от New-Team | Лицензия
Удалены: бонусы, предупреждающие надписи, украинская звуковая дорожка (в меню кнопки затерты). Команды диска переписаны заново, оставлен один VTS.
Видео сжато на 31.5%
Меню: статичное, недействующие кнопки затерты и закрыты.
Обработка: DVD ReMake Pro + Работа с меню (Adobe PhotoShop и MuxMan).
Автор релиза: J9-1000

MediaInfo

Общее
Полное имя : D:The Big Short (2015) DVD5VIDEO_TSVTS_01_1.VOB
Формат : MPEG-PS
Размер файла : 1024 Мбайт
Продолжительность : 28 м.
Режим общего битрейта : Переменный
Общий поток : 5033 Кбит/сек
Библиотека кодирования : encoded by TMPGEnc (ver. 2.524.63.181)
Видео
Идентификатор : 224 (0xE0)
Формат : MPEG Video
Версия формата : Version 2
Профиль формата : Main@Main
Параметр BVOP формата : Да
Параметр матрицы формата : Выборочная
Параметр GOP формата : Variable
Продолжительность : 28 м.
Вид битрейта : Переменный
Битрейт : 4036 Кбит/сек
Ширина : 720 пикселей
Высота : 576 пикселей
Соотношение сторон : 16:9
Частота кадров : 25,000 кадров/сек
Стандарт вещания : PAL
Цветовое пространство : YUV
Субдискретизация насыщенности : 4:2:0
Битовая глубина : 8 бит
Тип развёртки : Прогрессивная
Метод сжатия : С потерями
Бит/(Пиксели*Кадры) : 0.389
Временной код первого кадра : 00:00:00:00
Оригинал временного кода : Group of pictures header
Размер потока : 821 Мбайт (80%)
Библиотека кодирования : TMPGEnc 2.524.63.181
Основные цвета : BT.601 PAL
Характеристики трансфера : BT.470 System B, BT.470 System G
Коэффициенты матрицы : BT.601
Аудио #1
Идентификатор : 189 (0xBD)-128 (0x80)
Формат : AC-3
Формат/Информация : Audio Coding 3
Расширение режима : CM (complete main)
Параметр Endianness формата : Big
Режим смешивания : DVD-Video
Продолжительность : 28 м.
Вид битрейта : Постоянный
Битрейт : 448 Кбит/сек
Каналы : 6 каналов
Расположение каналов : Front: L C R, Side: L R, LFE
Частота : 48,0 КГц
Частота кадров : 31,250 кадров/сек (1536 spf)
Метод сжатия : С потерями
Задержка видео : 6 мс.
Размер потока : 91,1 Мбайт (9%)
Аудио #2
Идентификатор : 189 (0xBD)-129 (0x81)
Формат : AC-3
Формат/Информация : Audio Coding 3
Расширение режима : CM (complete main)
Параметр Endianness формата : Big
Режим смешивания : DVD-Video
Продолжительность : 28 м.
Вид битрейта : Постоянный
Битрейт : 448 Кбит/сек
Каналы : 6 каналов
Расположение каналов : Front: L C R, Side: L R, LFE
Частота : 48,0 КГц
Частота кадров : 31,250 кадров/сек (1536 spf)
Метод сжатия : С потерями
Задержка видео : 6 мс.
Размер потока : 91,1 Мбайт (9%)
Текст #1
Идентификатор : 189 (0xBD)-32 (0x20)
Формат : RLE
Формат/Информация : Run-length encoding
Режим смешивания : DVD-Video
Текст #2
Идентификатор : 189 (0xBD)-33 (0x21)
Формат : RLE
Формат/Информация : Run-length encoding
Режим смешивания : DVD-Video
Текст #3
Идентификатор : 189 (0xBD)-34 (0x22)
Формат : RLE
Формат/Информация : Run-length encoding
Режим смешивания : DVD-Video
Текст #4
Идентификатор : 189 (0xBD)-35 (0x23)
Формат : RLE
Формат/Информация : Run-length encoding
Режим смешивания : DVD-Video
Текст #5
Идентификатор : 189 (0xBD)-36 (0x24)
Формат : RLE
Формат/Информация : Run-length encoding
Режим смешивания : DVD-Video
Текст #6
Идентификатор : 189 (0xBD)-37 (0x25)
Формат : RLE
Формат/Информация : Run-length encoding
Режим смешивания : DVD-Video
Меню

Скриншоты


[Профиль] [ЛС]
Кто просматривает тему:

Показать сообщения:    

Текущее время: Сегодня 21:02

Часовой пояс: GMT



Вы не можете начинать темы
Вы не можете отвечать на сообщения
Вы не можете редактировать свои сообщения
Вы не можете удалять свои сообщения
Вы не можете голосовать в опросах
Вы не можете прикреплять файлы к сообщениям
Вы не можете скачивать файлы