Игра на высоте / When the Game Stands Tall (Томас Картер / Thomas Carter) [2014, США, драма, спорт, HDRip] MVO (iTunes)

 
Автор Сообщение

TorrentFilm ®

Пол:

Стаж: 2 года

Сообщений: 7741



Награды: Нет

Торрент-статистика

Создавать темы 21-Дек-2014 02:15

[Цитировать]

Игра на высоте / When the Game Stands Tall

Год выпуска: 2014
Страна: США
Жанр: драма, спорт
Продолжительность: 01:55:09
Перевод: Профессиональный (многоголосый, закадровый) [iTunes]
Cубтитры: нет
Режиссер: Томас Картер / Thomas Carter
В ролях: Джеймс Кэвизел, Александр Людвиг, Майкл Чиклис, Лора Дерн, Клэнси Браун, Сер’Дариус Блэйн, Стивен Джеймс, Мэттью Даддарио, Джо Массинджилл, Джесси Ашер
Описание: Фильм основан на реальных событиях. Это история футбольного тренера, благодаря которому безызвестная школьная футбольная команда провела победную серию из 151-й игры.
Автор: Scarabey
Качество видео: HDRip
Формат видео: AVI
Видео: 688x368 (1.87:1), 23.976 fps, XviD build 73 ~1596 kbps avg, 0.26 bit/pixel
Аудио: 48 kHz, AC3 Dolby Digital, 2/0 (L,R) ch, ~192.00 kbps avg

MediaInfo

Общее
Полное имя : D:\Scarabey\[2014] When the Game Stands Tall 1,45 MVO\When.the.Game.Stands.Tall.2014_HDRip_[Scarabey].avi
Формат : AVI
Формат/Информация : Audio Video Interleave
Размер файла : 1,45 Гбайт
Продолжительность : 1 ч. 55 м.
Общий поток : 1798 Кбит/сек
Программа кодирования : VirtualDubMod 1.5.10.3 | www.virtualdub-fr.org || (build 2550/release)
Библиотека кодирования : VirtualDubMod build 2550/release
Видео
Идентификатор : 0
Формат : MPEG-4 Visual
Профиль формата : Advanced Simple@L5
Параметр BVOP формата : 1
Параметр QPel формата : Нет
Параметр GMC формата : Без точки перехода
Параметр матрицы формата : Выборочная
Идентификатор кодека : XVID
Идентификатор кодека/Подсказка : XviD
Продолжительность : 1 ч. 55 м.
Битрейт : 1597 Кбит/сек
Ширина : 688 пикселей
Высота : 368 пикселей
Соотношение сторон : 1,85:1
Частота кадров : 23,976 кадра/сек
Цветовое пространство : YUV
Субдискретизация насыщенности : 4:2:0
Битовая глубина : 8 бит
Тип развёртки : Прогрессивная
Метод сжатия : С потерями
Бит/(Пиксели*Кадры) : 0.263
Размер потока : 1,28 Гбайт (89%)
Библиотека кодирования : XviD 73
Аудио
Идентификатор : 1
Формат : AC-3
Формат/Информация : Audio Coding 3
Расширение режима : CM (complete main)
Параметр Endianness формата : Big
Идентификатор кодека : 2000
Продолжительность : 1 ч. 55 м.
Вид битрейта : Постоянный
Битрейт : 192 Кбит/сек
Каналы : 2 канала
Расположение каналов : Front: L R
Частота : 48,0 КГц
Битовая глубина : 16 бит
Метод сжатия : С потерями
Размер потока : 158 Мбайт (11%)
Выравнивание : Разделение по промежуткам
Продолжительность промежутка : 42 мс. (1,00 видеокадр)
Время предзагрузки промежутка : 500 мс.

Сравнение

Отличия этой раздачи от существующей
1. Лучше кроп: у вебдлки кадр обрезан;
2. Лучше текстура и детали;
3. Артефакты компрессии - у конкурента их намного больше.

Скриншот с названием фильма

Скриншоты

[Профиль] [ЛС]
Кто просматривает тему:

Показать сообщения:    

Текущее время: Сегодня 02:43

Часовой пояс: GMT



Вы не можете начинать темы
Вы не можете отвечать на сообщения
Вы не можете редактировать свои сообщения
Вы не можете удалять свои сообщения
Вы не можете голосовать в опросах
Вы не можете прикреплять файлы к сообщениям
Вы не можете скачивать файлы