Игра в имитацию / The Imitation Game (2014) Bdrip 720p | Лицензия

 
Автор Сообщение

достали все ®

Пол:

Стаж: 1 год 8 месяцев

Сообщений: 6581



Награды: 12 (Подробнее)

За внесенный вклад в развитие сайта (Количество: 1) Mega Releaser 2 (Количество: 1) Mega Seeder 3 (Количество: 1)
Торрент-статистика

Создавать темы 01-Апр-2015 07:02

[Цитировать]

Информация о фильме
Название: Игра в имитацию
Оригинальное название: The Imitation Game
Год выхода: 2014
Жанр: триллер, драма, военный, биография
Режиссер: Мортен Тильдум
В ролях: Бенедикт Камбербэтч, Кира Найтли, Мэттью Гуд, Рори Киннер, Аллен Лич, Мэттью Бирд, Чарльз Дэнс, Марк Стронг, Джеймс Норткот, Том Гудман-Хилл
О фильме:
Английский математик и логик Алан Тьюринг помогает взломать код Enigma во время Второй мировой войны.

Выпущено: Великобритания, США / Black Bear Pictures, Bristol Automotive
Продолжительность: 01:54:13
Озвучивание: Дублированное [Лицензия]
Файл
Формат: MKV
Качество: BDRip 720p
Видео: 6481 Kb/s, 1280x534
Аудио: Russian: AC3, 448 Kb/s (6 ch), English: AC3, 640 Kb/s (6 ch)
Субтитры: Russian, English
Дополнительно: Сохранены оригинальные чаптеры, как на Blu-Ray
Скачать: Сэмпл---

Media Info

Unique ID : 174420509099188298604625163923494225979 (0x83382B0B274D839EAE3CF993FC73483B)
Complete name :The.Imitation.Game.2014.720p.BluRay.DTS x264-DON.mkv
Format : Matroska
Format version : Version 2
File size : 6.16 GiB
Duration : 1h 54mn
Overall bit rate : 7 723 Kbps
Encoded date : UTC 2015-03-31 18:05:04
Writing application : mkvmerge v7.8.0 ('River Man') 64bit built on Mar 27 2015 16:31:37
Writing library : libebml v1.3.1 + libmatroska v1.4.2
_STATISTICS_WRITING_APP : mkvmerge v7.8.0 ('River Man') 64bit built on Mar 27 2015 16:31:37
_STATISTICS_WRITING_DATE_UTC : 2015-03-31 18:05:04
_STATISTICS_TAGS : BPS DURATION NUMBER_OF_FRAMES NUMBER_OF_BYTES
DURATION : 01:54:13.792000000
NUMBER_OF_FRAMES : 214181
NUMBER_OF_BYTES : 383812352
Video
ID : 1
Format : AVC
Format/Info : Advanced Video Codec
Format profile : High@L4.1
Format settings, CABAC : Yes
Format settings, ReFrames : 12 frames
Codec ID : V_MPEG4/ISO/AVC
Duration : 1h 54mn
Bit rate : 6 481 Kbps
Width : 1 280 pixels
Height : 534 pixels
Display aspect ratio : 2.40:1
Frame rate mode : Constant
Frame rate : 23.976 fps
Color space : YUV
Chroma subsampling : 4:2:0
Bit depth : 8 bits
Scan type : Progressive
Bits/(Pixel*Frame) : 0.395
Stream size : 5.17 GiB (84%)
Writing library : x264 core 144 r2525kMod 40bb568
Encoding settings : cabac=1 / ref=12 / deblock=1:-3:-3 / analyse=0x3:0x113 / me=umh / subme=11 / psy=1 / fade_compensate=0.00 / psy_rd=1.00:0.05 / mixed_ref=1 / me_range=32 / chroma_me=1 / trellis=2 / 8x8dct=1 / cqm=0 / deadzone=21,11 / fast_pskip=0 / chroma_qp_offset=-4 / threads=12 / lookahead_threads=3 / sliced_threads=0 / nr=0 / decimate=1 / interlaced=0 / bluray_compat=0 / constrained_intra=0 / fgo=0 / bframes=12 / b_pyramid=2 / b_adapt=2 / b_bias=0 / direct=3 / weightb=1 / open_gop=0 / weightp=2 / keyint=230 / keyint_min=23 / scenecut=40 / intra_refresh=0 / rc_lookahead=40 / rc=crf / mbtree=0 / crf=16.8000 / qcomp=0.65 / qpmin=0 / qpmax=69 / qpstep=4 / vbv_maxrate=50000 / vbv_bufsize=62500 / crf_max=0.0 / nal_hrd=none / filler=0 / ip_ratio=1.40 / pb_ratio=1.30 / aq=3:0.85
Language : English
Default : Yes
Forced : No
_STATISTICS_WRITING_APP : mkvmerge v7.8.0 ('River Man') 64bit built on Mar 27 2015 16:31:37
_STATISTICS_WRITING_DATE_UTC : 2015-03-31 18:05:04
_STATISTICS_TAGS : BPS DURATION NUMBER_OF_FRAMES NUMBER_OF_BYTES
DURATION : 01:54:13.847000000
NUMBER_OF_FRAMES : 164328
NUMBER_OF_BYTES : 5681913185
Audio #1
ID : 2
Format : AC-3
Format/Info : Audio Coding 3
Mode extension : CM (complete main)
Format settings, Endianness : Big
Codec ID : A_AC3
Duration : 1h 54mn
Bit rate mode : Constant
Bit rate : 448 Kbps
Channel(s) : 6 channels
Channel positions : Front: L C R, Side: L R, LFE
Sampling rate : 48.0 KHz
Bit depth : 16 bits
Compression mode : Lossy
Stream size : 366 MiB (6%)
Language : Russian
Default : Yes
Forced : No
Audio #2
ID : 3
Format : AC-3
Format/Info : Audio Coding 3
Mode extension : CM (complete main)
Format settings, Endianness : Big
Codec ID : A_AC3
Duration : 1h 54mn
Bit rate mode : Constant
Bit rate : 640 Kbps
Channel(s) : 6 channels
Channel positions : Front: L C R, Side: L R, LFE
Sampling rate : 48.0 KHz
Bit depth : 16 bits
Compression mode : Lossy
Stream size : 523 MiB (8%)
Language : English
Default : No
Forced : No
Text #1
ID : 4
Format : UTF-8
Codec ID : S_TEXT/UTF8
Codec ID/Info : UTF-8 Plain Text
Title : Matveev
Language : Russian
Default : No
Forced : No
Text #2
ID : 5
Format : UTF-8
Codec ID : S_TEXT/UTF8
Codec ID/Info : UTF-8 Plain Text
Title : SDH
Language : English
Default : No
Forced : No
Text #3
ID : 6
Format : UTF-8
Codec ID : S_TEXT/UTF8
Codec ID/Info : UTF-8 Plain Text
Language : English
Default : No
Forced : No
Menu
00:00:00.000 : en:00:00:00.000
00:07:58.895 : en:00:07:58.895
00:20:20.010 : en:00:20:20.010
00:28:20.032 : en:00:28:20.032
00:36:59.050 : en:00:36:59.050
00:46:37.128 : en:00:46:37.128
00:57:27.527 : en:00:57:27.527
01:09:35.088 : en:01:09:35.088
01:23:46.688 : en:01:23:46.688
01:29:29.239 : en:01:29:29.239
01:35:09.913 : en:01:35:09.913
01:42:10.499 : en:01:42:10.499
--- ---

Скриншоты

-
[Профиль] [ЛС]
Кто просматривает тему:

Показать сообщения:    

Текущее время: Сегодня 18:28

Часовой пояс: GMT



Вы не можете начинать темы
Вы не можете отвечать на сообщения
Вы не можете редактировать свои сообщения
Вы не можете удалять свои сообщения
Вы не можете голосовать в опросах
Вы не можете прикреплять файлы к сообщениям
Вы не можете скачивать файлы