Игра без правил / Fair Game (Даг Лайман / Doug Liman) [2010, США, ОАЭ, триллер, драма, биография, BDRip] Dub (R5) + Original Eng + subs (Rus, Eng SDH, Eng Forced)

 
Автор Сообщение

TorrentFilm ®

Пол:

Стаж: 2 года

Сообщений: 7741



Награды: Нет

Торрент-статистика

Создавать темы 19-Дек-2014 02:00

[Цитировать]

Игра без правил / Fair Game- Год выпуска: 2010
Страна: США, ОАЭ
Жанр: триллер, драма, биография
Продолжительность: 01:47:43
Перевод: Профессиональный (полное дублирование) R5
+ Оригинальная звуковая дорожка
Субтитры: Русские, Английские (SDH, форсированные) (внешние srt*)-Режиссер: Даг Лайман / Doug Liman
В ролях: Наоми Уоттс, Шон Пенн, Ананд Тивари, Джессика Хехт, Ребекка Ригг, Брук Смит, Томас МакКарти, Майкл Келли, Кристоффер Райан Уинтерс, Шон Махон
О фильме: Грязные интриги Белого дома, тайны политики президента Буша, сенсационные факты о войне в Ираке… Один из самых громких политических скандалов США закручивается вокруг семьи посла Джона Уилсона и секретного агента Валери Плейм. Чтобы наказать бывшего дипломата, придавшего огласку секретным материалам, власти обвиняют его жену в шпионаже и угрожают расправой над семьей. Но Джо и Валери сломить невозможно, чтобы выжить, они готовят ответный удар.-Релиз:
Автор: sociolog_melvas
Качество: BDRip (источник: / BD-Remux / 1080p)
Формат: AVI
Видео: 720x304 (1.83:1), 23,976 fps, XviD build 65 ~1998 kbps avg, 0.38 bit/pixel
Аудио #01: 48 kHz, AC3 Dolby Digital, 3/2 (L,C,R,l,r) + LFE ch, ~448.00 kbps avg dub
Аудио #02: 48 kHz, AC3 Dolby Digital, 3/2 (L,C,R,l,r) + LFE ch, ~448.00 kbps avg eng
Размер: 2236.78 Mb (1/2 DVD-R)
Скачать: Семпл-

Кадры из фильма


-

Mi

Формат : AVI
Формат/Информация : Audio Video Interleave
Профиль формата : OpenDML
Размер файла : 2,18 Гбайт
Продолжительность : 1 ч. 47 м.
Общий поток : 2902 Кбит/сек
Название фильма : Игра без правил / Fair Game (2010) BDRip
Режиссёр : sociolog_melvas
Жанр : триллер, драма, биография
Программа кодирования : VirtualDubMod 1.5.10.2 (build 2540/release)
Примечание : 09.11.2014
Видео
Идентификатор : 0
Формат : MPEG-4 Visual
Профиль формата : Advanced Simple@L5
Параметр BVOP формата : 1
Параметр QPel формата : Нет
Параметр GMC формата : Без точки перехода
Параметр матрицы формата : Выборочная
Идентификатор кодека : XVID
Идентификатор кодека/Подсказка : XviD
Продолжительность : 1 ч. 47 м.
Битрейт : 1988 Кбит/сек
Ширина : 720 пикселей
Высота : 304 пикселя
Соотношение сторон : 2,35:1
Частота кадров : 23,976 кадра/сек
Цветовое пространство : YUV
Субдискретизация насыщенности : 4:2:0
Битовая глубина : 8 бит
Тип развёртки : Прогрессивная
Метод сжатия : С потерями
Бит/(Пиксели*Кадры) : 0.379
Размер потока : 1,50 Гбайт (69%)
Библиотека кодирования : XviD 65
Аудио #1
Идентификатор : 1
Формат : AC-3
Формат/Информация : Audio Coding 3
Расширение режима : CM (complete main)
Параметр Endianness формата : Big
Идентификатор кодека : 2000
Продолжительность : 1 ч. 47 м.
Вид битрейта : Постоянный
Битрейт : 448 Кбит/сек
Каналы : 6 каналов
Расположение каналов : Front: L C R, Side: L R, LFE
Частота : 48,0 КГц
Битовая глубина : 16 бит
Метод сжатия : С потерями
Размер потока : 345 Мбайт (15%)
Выравнивание : Разделение по промежуткам
Продолжительность промежутка : 42 мс. (1,00 видеокадр)
Время предзагрузки промежутка : 500 мс.
Аудио #2
Идентификатор : 2
Формат : AC-3
Формат/Информация : Audio Coding 3
Расширение режима : CM (complete main)
Параметр Endianness формата : Big
Идентификатор кодека : 2000
Продолжительность : 1 ч. 47 м.
Вид битрейта : Постоянный
Битрейт : 448 Кбит/сек
Каналы : 6 каналов
Расположение каналов : Front: L C R, Side: L R, LFE
Частота : 48,0 КГц
Битовая глубина : 16 бит
Метод сжатия : С потерями
Размер потока : 345 Мбайт (15%)
Выравнивание : Разделение по промежуткам
Продолжительность промежутка : 42 мс. (1,00 видеокадр)
Время предзагрузки промежутка : 500 мс.

-
• Трансфер видео с немецкого диска. В нем, в отличии от американского, нет английских хардсабов на арабскую речь. В русской дороге арабская речь переведена закадровой озвучкой.
• Сабы, как всегда у Парадиз-а набиты капсом. За пофиксеные субтитры спасибо Volshebnik.
[Профиль] [ЛС]

Создавать темы 06-Авг-2015 22:54 (спустя 7 месяцев 18 дней)

Топик был перенесен из форума Фильмы до 2014 года в форум Фильмы до 2012 года
sergej644
 

Создавать темы 12-Июн-2016 07:54 (спустя 1 год 5 месяцев)

Топик был перенесен из форума Фильмы 2011 года в форум Фильмы 2010 года
Russian Mafia
 
Кто просматривает тему:

Показать сообщения:    

Текущее время: Сегодня 18:43

Часовой пояс: GMT



Вы не можете начинать темы
Вы не можете отвечать на сообщения
Вы не можете редактировать свои сообщения
Вы не можете удалять свои сообщения
Вы не можете голосовать в опросах
Вы не можете прикреплять файлы к сообщениям
Вы не можете скачивать файлы