(Author's Song) Игорь Тальков - Collections (8CD) - 1993 - 2001 [FLAC, image+.cue, lossless]

 
Автор Сообщение

sergej644 ®

Пол:

Стаж: 4 года 11 месяцев

Сообщений: 6038

Откуда: Soviet Union



Награды: Нет

Торрент-статистика

Создавать темы 03-Июн-2015 19:59

[Цитировать]

-Игорь Тальков / Collections (8CD)-- Год издания: 1993 - 2001
Страна: Russia
Жанр: Author's Song
Продолжительность: 07:36:39-Лейбл издания: Русское Радио
Страна-выпуска диска: Russia
Формат: FLAC
Битрейт аудио: lossless
Тип рипа: image+.cue
Наличие сканов в содержимом раздачи: да
--

Трэклист

1993 - Этот мир | 00:56:09

01.Ностальгия (05:25)
02.Фатальная колесница (06:20)
03.Маленькая планета (04:48)
04.Океан непонимания (04:34)
05.Уеду! (04:12)
06.Спасательный круг (04:38)
07.Мистер ''X'' (04:36)
08.Саквояж (03:56)
09.Звезда (06:07)
10.Солнце уходит на запад (07:12)
11.Этот мир (04:27)

лог создания рипа

Exact Audio Copy V0.99 prebeta 4 from 23. January 2008
Отчёт EAC об извлечении, выполненном 2. марта 2009, 3:11
Игорь Тальков / Этот мир
Дисковод: PLEXTOR CD-R   PX-W5224A   Adapter: 1  ID: 0
Режим чтения                 : Достоверность
Использование точного потока : Да
Отключение кэша аудио        : Да
Использование указателей C2  : Нет
Коррекция смещения при чтении                     : 30
Способность читать области Lead-in и Lead-out     : Нет
Заполнение пропущенных сэмплов тишиной            : Да
Удаление блоков с тишиной в начале и конце        : Нет
При вычислениях CRC использовались нулевые сэмплы : Да
Интерфейс                                         : Встроенный Win32-интерфейс для Win NT/2000
Выходной формат : Внутренние WAV-операции
Формат сэмплов  : 44.100 Гц; 16 бит; стерео
TOC извлечённого CD
     Трек |   Старт  | Длительность | Начальный сектор | Конечный сектор
    ---------------------------------------------------------------------
       1  |  0:00.00 |    5:26.72   |           0      |      24521
       2  |  5:26.72 |    6:22.07   |       24522      |      53178
       3  | 11:49.04 |    4:50.72   |       53179      |      75000
       4  | 16:40.01 |    4:36.43   |       75001      |      95743
       5  | 21:16.44 |    4:14.03   |       95744      |     114796
       6  | 25:30.47 |    4:39.70   |      114797      |     135791
       7  | 30:10.42 |    4:38.06   |      135792      |     156647
       8  | 34:48.48 |    3:58.27   |      156648      |     174524
       9  | 38:47.00 |    6:08.45   |      174525      |     202169
      10  | 44:55.45 |    7:14.55   |      202170      |     234774
      11  | 52:10.25 |    4:26.49   |      234775      |     254773
Характеристики диапазона извлечения и сообщения об ошибках
Выбранный диапазон
     Имя файла C:\Игорь Тальков\Таль\Этот мир\Игорь Тальков - Этот мир.wav
     Пиковый уровень 98.8 %
     Качество диапазона 99.9 %
     CRC копии C8C73E06
     Копирование... OK
Ошибок не произошло
Конец отчёта

содержание индексной карты *cue

REM GENRE Авторская песня,Русский рок
REM DATE ~1993
REM COMMENT
PERFORMER "Игорь Тальков"
TITLE "Этот мир"
FILE "1993 - Этот мир.flac" WAVE
  TRACK 01 AUDIO
    TITLE "Ностальгия"
    INDEX 01 00:00:00
  TRACK 02 AUDIO
    TITLE "Фатальная колесница"
    INDEX 01 05:24:18
  TRACK 03 AUDIO
    TITLE "Маленькая планета"
    INDEX 01 11:43:42
  TRACK 04 AUDIO
    TITLE "Океан непонимания"
    INDEX 01 16:31:30
  TRACK 05 AUDIO
    TITLE "Уеду!"
    INDEX 01 21:04:56
  TRACK 06 AUDIO
    TITLE "Спасательный круг"
    INDEX 01 25:15:74
  TRACK 07 AUDIO
    TITLE "Мистер ''X''"
    INDEX 01 29:53:10
  TRACK 08 AUDIO
    TITLE "Саквояж"
    INDEX 01 34:28:33
  TRACK 09 AUDIO
    TITLE "Звезда"
    INDEX 01 38:24:19
  TRACK 10 AUDIO
    TITLE "Солнце уходит на запад"
    INDEX 01 44:30:22
  TRACK 11 AUDIO
    TITLE "Этот мир"
    INDEX 01 51:42:21

1995 - Призвание | 00:59:57

01.Чистые пруды (05:43)
02.Маленький город (05:00)
03.Рыжий (05:14)
04.Мой брат (05:14)
05.Призвание (06:48)
06.Примерный мальчик (03:18)
07.Друзья - товарищи (03:17)
08.Чудак (05:36)
09.Поздно (04:04)
10.В океане непонимания (03:52)
11.Гармония (04:39)
12.Этот путь (05:45)
13.Посвящение И.Саруханову (01:32)

лог создания рипа

Exact Audio Copy V0.99 prebeta 4 from 23. January 2008
Отчёт EAC об извлечении, выполненном 2. марта 2009, 1:45
Игорь Тальков / Призвание
Дисковод: PLEXTOR CD-R   PX-W5224A   Adapter: 1  ID: 0
Режим чтения                 : Достоверность
Использование точного потока : Да
Отключение кэша аудио        : Да
Использование указателей C2  : Нет
Коррекция смещения при чтении                     : 30
Способность читать области Lead-in и Lead-out     : Нет
Заполнение пропущенных сэмплов тишиной            : Да
Удаление блоков с тишиной в начале и конце        : Нет
При вычислениях CRC использовались нулевые сэмплы : Да
Интерфейс                                         : Встроенный Win32-интерфейс для Win NT/2000
Выходной формат : Внутренние WAV-операции
Формат сэмплов  : 44.100 Гц; 16 бит; стерео
TOC извлечённого CD
     Трек |   Старт  | Длительность | Начальный сектор | Конечный сектор
    ---------------------------------------------------------------------
       1  |  0:00.00 |    5:44.45   |           0      |      25844
       2  |  5:44.45 |    5:02.26   |       25845      |      48520
       3  | 10:46.71 |    5:16.19   |       48521      |      72239
       4  | 16:03.15 |    5:17.01   |       72240      |      96015
       5  | 21:20.16 |    6:50.71   |       96016      |     126836
       6  | 28:11.12 |    3:20.14   |      126837      |     141850
       7  | 31:31.26 |    3:19.56   |      141851      |     156831
       8  | 34:51.07 |    5:38.53   |      156832      |     182234
       9  | 40:29.60 |    4:06.18   |      182235      |     200702
      10  | 44:36.03 |    3:55.12   |      200703      |     218339
      11  | 48:31.15 |    4:41.46   |      218340      |     239460
      12  | 53:12.61 |    5:48.08   |      239461      |     265568
      13  | 59:00.69 |    1:31.41   |      265569      |     272434
Характеристики диапазона извлечения и сообщения об ошибках
Выбранный диапазон
     Имя файла C:\Игорь Тальков\Таль\Призвание\Игорь Тальков - Призвание.wav
     Пиковый уровень 99.9 %
     Качество диапазона 99.9 %
     CRC копии D1BD108F
     Копирование... OK
Ошибок не произошло
Конец отчёта

содержание индексной карты *cue

REM GENRE Авторская песня,Русский рок
REM DATE ~1995
REM COMMENT
PERFORMER "Игорь Тальков"
TITLE "Призвание"
FILE "1995  - Призвание.flac" WAVE
  TRACK 01 AUDIO
    TITLE "Чистые пруды"
    INDEX 01 00:00:00
  TRACK 02 AUDIO
    TITLE "Маленький город"
    INDEX 01 05:42:13
  TRACK 03 AUDIO
    TITLE "Рыжий"
    INDEX 01 10:41:53
  TRACK 04 AUDIO
    TITLE "Мой брат"
    INDEX 01 15:55:06
  TRACK 05 AUDIO
    TITLE "Призвание"
    INDEX 01 21:08:41
  TRACK 06 AUDIO
    TITLE "Примерный мальчик"
    INDEX 01 27:56:36
  TRACK 07 AUDIO
    TITLE "Друзья - товарищи"
    INDEX 01 31:13:71
  TRACK 08 AUDIO
    TITLE "Чудак"
    INDEX 01 34:30:71
  TRACK 09 AUDIO
    TITLE "Поздно"
    INDEX 01 40:06:11
  TRACK 10 AUDIO
    TITLE "В океане непонимания"
    INDEX 01 44:09:51
  TRACK 11 AUDIO
    TITLE "Гармония"
    INDEX 01 48:01:38
  TRACK 12 AUDIO
    TITLE "Этот путь"
    INDEX 01 52:40:11
  TRACK 13 AUDIO
    TITLE "Посвящение И.Саруханову"
    INDEX 01 58:25:07

2001 - Моя любовь (2CD)

CD 1 | 00:40:12

01.Моя любовь (06:28)
02.Ты опоздала (05:11)
03.Летний дождь (08:39)
04.Самый лучший день (04:44)
05.Память (05:46)
06.Праздник (05:12)
07.Самый лучший день (первый вариант фонограммы) (04:15)

лог создания рипа

Exact Audio Copy V0.99 prebeta 4 from 23. January 2008
Отчёт EAC об извлечении, выполненном 2. марта 2009, 2:40
Тальков / Моя любовь 1 часть
Дисковод: PLEXTOR CD-R   PX-W5224A   Adapter: 1  ID: 0
Режим чтения                 : Достоверность
Использование точного потока : Да
Отключение кэша аудио        : Да
Использование указателей C2  : Нет
Коррекция смещения при чтении                     : 30
Способность читать области Lead-in и Lead-out     : Нет
Заполнение пропущенных сэмплов тишиной            : Да
Удаление блоков с тишиной в начале и конце        : Нет
При вычислениях CRC использовались нулевые сэмплы : Да
Интерфейс                                         : Встроенный Win32-интерфейс для Win NT/2000
Выходной формат : Внутренние WAV-операции
Формат сэмплов  : 44.100 Гц; 16 бит; стерео
TOC извлечённого CD
     Трек |   Старт  | Длительность | Начальный сектор | Конечный сектор
    ---------------------------------------------------------------------
       1  |  0:00.00 |    6:27.06   |           0      |      29030
       2  |  6:27.06 |    5:10.28   |       29031      |      52308
       3  | 11:37.34 |    8:38.73   |       52309      |      91231
       4  | 20:16.32 |    4:43.14   |       91232      |     112470
       5  | 24:59.46 |    5:45.37   |      112471      |     138382
       6  | 30:45.08 |    5:11.51   |      138383      |     161758
       7  | 35:56.59 |    4:15.04   |      161759      |     180887
Характеристики диапазона извлечения и сообщения об ошибках
Выбранный диапазон
     Имя файла C:\Игорь Тальков\Таль\Моя любовь_1\Тальков - Моя любовь 1 часть.wav
     Пиковый уровень 98.8 %
     Качество диапазона 100.0 %
     CRC копии 27B27947
     Копирование... OK
Ошибок не произошло
Конец отчёта

содержание индексной карты *cue

REM GENRE Авторская песня,Русский рок
REM DATE ~2001
REM COMMENT
PERFORMER "Игорь Тальков"
TITLE "Моя любовь (первая часть)"
FILE "Моя любовь (первая часть).flac" WAVE
  TRACK 01 AUDIO
    TITLE "Моя любовь"
    INDEX 01 00:00:00
  TRACK 02 AUDIO
    TITLE "Ты опоздала"
    INDEX 01 06:27:09
  TRACK 03 AUDIO
    TITLE "Летний дождь"
    INDEX 01 11:37:40
  TRACK 04 AUDIO
    TITLE "Самый лучший день"
    INDEX 01 20:16:34
  TRACK 05 AUDIO
    TITLE "Память"
    INDEX 01 24:59:48
  TRACK 06 AUDIO
    TITLE "Праздник"
    INDEX 01 30:45:11
  TRACK 07 AUDIO
    TITLE "Самый лучший день (первый вариант фонограммы)"
    INDEX 01 35:56:64

CD 2 | 00:52:54

01.Love You (Я тебя люблю) (05:58)
02.У твоего окна (05:41)
03.Замкнутый круг (06:11)
04.Таня (04:49)
05.Моя любовь (05:23)
06.Память / Когда засыпает город (концерт 1984 г.) (04:36)
07.Разговоры ни о чем (концерт 1984 г.) (05:45)
08.Таня (первый вариант фонограммы) (05:26)
09.Моя любовь (концертная запись) (04:53)
10.Три дома (04:16)

лог создания рипа

Exact Audio Copy V0.99 prebeta 4 from 23. January 2008
Отчёт EAC об извлечении, выполненном 2. марта 2009, 2:23
Тальков Игорь / Моя любовь
Дисковод: PLEXTOR CD-R   PX-W5224A   Adapter: 1  ID: 0
Режим чтения                 : Достоверность
Использование точного потока : Да
Отключение кэша аудио        : Да
Использование указателей C2  : Нет
Коррекция смещения при чтении                     : 30
Способность читать области Lead-in и Lead-out     : Нет
Заполнение пропущенных сэмплов тишиной            : Да
Удаление блоков с тишиной в начале и конце        : Нет
При вычислениях CRC использовались нулевые сэмплы : Да
Интерфейс                                         : Встроенный Win32-интерфейс для Win NT/2000
Выходной формат : Внутренние WAV-операции
Формат сэмплов  : 44.100 Гц; 16 бит; стерео
TOC извлечённого CD
     Трек |   Старт  | Длительность | Начальный сектор | Конечный сектор
    ---------------------------------------------------------------------
       1  |  0:00.00 |    6:00.11   |           0      |      27010
       2  |  6:00.11 |    5:43.32   |       27011      |      52767
       3  | 11:43.43 |    6:14.09   |       52768      |      80826
       4  | 17:57.52 |    4:51.01   |       80827      |     102652
       5  | 22:48.53 |    5:25.58   |      102653      |     127085
       6  | 28:14.36 |    4:35.05   |      127086      |     147715
       7  | 32:49.41 |    5:47.73   |      147716      |     173813
       8  | 38:37.39 |    5:29.18   |      173814      |     198506
       9  | 44:06.57 |    4:56.11   |      198507      |     220717
      10  | 49:02.68 |    4:16.11   |      220718      |     239928
Характеристики диапазона извлечения и сообщения об ошибках
Выбранный диапазон
     Имя файла C:\Игорь Тальков\Таль\Моя любовь_2\Тальков Игорь - Моя любовь.wav
     Пиковый уровень 99.0 %
     Качество диапазона 100.0 %
     CRC копии 64208B5F
     Копирование... OK
Ошибок не произошло
Конец отчёта

содержание индексной карты *cue

REM GENRE Авторская песня,Русский рок
REM DATE ~2001
REM COMMENT
PERFORMER "Игорь Тальков"
TITLE "Моя любовь (вторая часть)"
FILE "Моя любовь.flac" WAVE
  TRACK 01 AUDIO
    TITLE "Love You (Я тебя люблю)"
    INDEX 01 00:00:00
  TRACK 02 AUDIO
    TITLE "У твоего окна"
    INDEX 01 05:57:23
  TRACK 03 AUDIO
    TITLE "Замкнутый круг"
    INDEX 01 11:37:60
  TRACK 04 AUDIO
    TITLE "Таня"
    INDEX 01 17:48:16
  TRACK 05 AUDIO
    TITLE "Моя любовь"
    INDEX 01 22:36:66
  TRACK 06 AUDIO
    TITLE "Память / Когда засыпает город (концерт 1984 г.)"
    INDEX 01 27:59:62
  TRACK 07 AUDIO
    TITLE "Разговоры ни о чем (концерт 1984 г.)"
    INDEX 01 32:34:70
  TRACK 08 AUDIO
    TITLE "Таня (первый вариант фонограммы)"
    INDEX 01 38:19:67
  TRACK 09 AUDIO
    TITLE "Моя любовь (концертная запись)"
    INDEX 01 43:45:05
  TRACK 10 AUDIO
    TITLE "Три дома"
    INDEX 01 48:37:54

2001 - Родина моя | 01:01:21

01.Родина моя (06:52)
02.Россия (07:14)
03.Бывший подъесаул (05:58)
04.Господа - демократы (03:49)
05.КПСС (03:43)
06.Война (03:50)
07.Дядя (05:06)
08.Бал сатаны (04:52)
09.Я вернусь (06:20)
10.Господин президент (03:44)
11.Бывший подъесаул (первый вариант фонограммы) (05:41)
12.Родина моя (концертная запись) (04:19)

лог создания рипа

Exact Audio Copy V0.99 prebeta 4 from 23. January 2008
Отчёт EAC об извлечении, выполненном 2. марта 2009, 3:30
Игорь Тальков / Родина моя
Дисковод: PLEXTOR CD-R   PX-W5224A   Adapter: 1  ID: 0
Режим чтения                 : Достоверность
Использование точного потока : Да
Отключение кэша аудио        : Да
Использование указателей C2  : Нет
Коррекция смещения при чтении                     : 30
Способность читать области Lead-in и Lead-out     : Нет
Заполнение пропущенных сэмплов тишиной            : Да
Удаление блоков с тишиной в начале и конце        : Нет
При вычислениях CRC использовались нулевые сэмплы : Да
Интерфейс                                         : Встроенный Win32-интерфейс для Win NT/2000
Выходной формат : Внутренние WAV-операции
Формат сэмплов  : 44.100 Гц; 16 бит; стерео
TOC извлечённого CD
     Трек |   Старт  | Длительность | Начальный сектор | Конечный сектор
    ---------------------------------------------------------------------
       1  |  0:00.00 |    6:53.62   |           0      |      31036
       2  |  6:53.62 |    7:15.44   |       31037      |      63705
       3  | 14:09.31 |    6:00.26   |       63706      |      90731
       4  | 20:09.57 |    3:51.07   |       90732      |     108063
       5  | 24:00.64 |    3:45.08   |      108064      |     124946
       6  | 27:45.72 |    3:51.52   |      124947      |     142323
       7  | 31:37.49 |    5:07.67   |      142324      |     165415
       8  | 36:45.41 |    4:54.13   |      165416      |     187478
       9  | 41:39.54 |    6:22.01   |      187479      |     216129
      10  | 48:01.55 |    3:46.01   |      216130      |     233080
      11  | 51:47.56 |    5:43.36   |      233081      |     258841
      12  | 57:31.17 |    4:18.10   |      258842      |     278201
Характеристики диапазона извлечения и сообщения об ошибках
Выбранный диапазон
     Имя файла C:\Игорь Тальков\Таль\Родина моя\Игорь Тальков - Родина моя.wav
     Пиковый уровень 98.8 %
     Качество диапазона 100.0 %
     CRC копии F5FCC0BE
     Копирование... OK
Ошибок не произошло
Конец отчёта

содержание индексной карты *cue

REM GENRE Авторская песня,Русский рок
REM DATE ~2001
REM COMMENT
PERFORMER "Игорь Тальков"
TITLE "Родина моя"
FILE "2001 - Родина моя.flac" WAVE
  TRACK 01 AUDIO
    TITLE "Родина моя"
    INDEX 01 00:00:00
  TRACK 02 AUDIO
    TITLE "Россия"
    INDEX 01 06:51:13
  TRACK 03 AUDIO
    TITLE "Бывший подъесаул"
    INDEX 01 14:04:14
  TRACK 04 AUDIO
    TITLE "Господа - демократы"
    INDEX 01 20:01:72
  TRACK 05 AUDIO
    TITLE "КПСС"
    INDEX 01 23:50:26
  TRACK 06 AUDIO
    TITLE "Война"
    INDEX 01 27:32:60
  TRACK 07 AUDIO
    TITLE "Дядя"
    INDEX 01 31:21:70
  TRACK 08 AUDIO
    TITLE "Бал сатаны"
    INDEX 01 36:27:03
  TRACK 09 AUDIO
    TITLE "Я вернусь"
    INDEX 01 41:18:44
  TRACK 10 AUDIO
    TITLE "Господин президент"
    INDEX 01 47:38:00
  TRACK 11 AUDIO
    TITLE "Бывший подъесаул (первый вариант фонограммы)"
    INDEX 01 51:21:36
  TRACK 12 AUDIO
    TITLE "Родина моя (концертная запись)"
    INDEX 01 57:02:26

2001 - Суд (2CD)

CD 1 | 00:56:32

01.Памяти Виктора Цоя (11:27)
02.Родина моя (05:59)
03.КПСС (03:02)
04.Революционная ламбада (01:32)
05.Чижик-пыжик (03:12)
06.Метаморфоза (04:14)
07.Кремлевская стена (05:15)
08.Стоп!..Думаю себе... (03:41)
09.Полугласность (01:27)
10.Господа-демократы (07:12)
11.Бывший подъесаул (09:37)

лог создания рипа

Exact Audio Copy V0.99 prebeta 4 from 23. January 2008
Отчёт EAC об извлечении, выполненном 2. марта 2009, 0:59
Игорь Тальков / СУД первая часть
Дисковод: PLEXTOR CD-R   PX-W5224A   Adapter: 1  ID: 0
Режим чтения                 : Достоверность
Использование точного потока : Да
Отключение кэша аудио        : Да
Использование указателей C2  : Нет
Коррекция смещения при чтении                     : 30
Способность читать области Lead-in и Lead-out     : Нет
Заполнение пропущенных сэмплов тишиной            : Да
Удаление блоков с тишиной в начале и конце        : Нет
При вычислениях CRC использовались нулевые сэмплы : Да
Интерфейс                                         : Встроенный Win32-интерфейс для Win NT/2000
Выходной формат : Внутренние WAV-операции
Формат сэмплов  : 44.100 Гц; 16 бит; стерео
TOC извлечённого CD
     Трек |   Старт  | Длительность | Начальный сектор | Конечный сектор
    ---------------------------------------------------------------------
       1  |  0:00.00 |   11:26.55   |           0      |      51504
       2  | 11:26.55 |    5:58.04   |       51505      |      78358
       3  | 17:24.59 |    3:01.31   |       78359      |      91964
       4  | 20:26.15 |    1:31.58   |       91965      |      98847
       5  | 21:57.73 |    3:11.25   |       98848      |     113197
       6  | 25:09.23 |    4:13.15   |      113198      |     132187
       7  | 29:22.38 |    5:14.40   |      132188      |     155777
       8  | 34:37.03 |    3:40.18   |      155778      |     172295
       9  | 38:17.21 |    1:26.45   |      172296      |     178790
      10  | 39:43.66 |    7:11.11   |      178791      |     211126
      11  | 46:55.02 |    9:36.12   |      211127      |     254338
Характеристики диапазона извлечения и сообщения об ошибках
Выбранный диапазон
     Имя файла C:\Игорь Тальков\Таль\Суд_1\Игорь Тальков - СУД первая часть.wav
     Пиковый уровень 98.8 %
     Качество диапазона 100.0 %
     CRC копии 41A2308B
     Копирование... OK
Ошибок не произошло
Конец отчёта

содержание индексной карты *cue

REM GENRE Авторская песня,Русский рок
REM DATE ~2001
REM COMMENT
PERFORMER "Игорь Тальков"
TITLE "Суд (первая часть)"
FILE "СУД (первая часть).flac" WAVE
  TRACK 01 AUDIO
    TITLE "Памяти Виктора Цоя"
    INDEX 01 00:00:00
  TRACK 02 AUDIO
    TITLE "Родина моя"
    INDEX 01 11:26:57
  TRACK 03 AUDIO
    TITLE "КПСС"
    INDEX 01 17:24:60
  TRACK 04 AUDIO
    TITLE "Революционная ламбада"
    INDEX 01 20:26:22
  TRACK 05 AUDIO
    TITLE "Чижик-пыжик"
    INDEX 01 21:58:04
  TRACK 06 AUDIO
    TITLE "Метаморфоза"
    INDEX 01 25:09:29
  TRACK 07 AUDIO
    TITLE "Кремлевская стена"
    INDEX 01 29:22:44
  TRACK 08 AUDIO
    TITLE "Стоп!..Думаю себе..."
    INDEX 01 34:37:05
  TRACK 09 AUDIO
    TITLE "Полугласность"
    INDEX 01 38:17:22
  TRACK 10 AUDIO
    TITLE "Господа-демократы"
    INDEX 01 39:43:71
  TRACK 11 AUDIO
    TITLE "Бывший подъесаул"
    INDEX 01 46:55:07

CD 2 | 01:11:09

01.Россия (12:28)
02.Я вернусь (06:41)
03.Бал Сатаны (10:17)
04.Чистые пруды (07:27)
05.Звезда (05:54)
06.Самый лучший день (05:30)
07.Летний дождь (10:00)
08.Океан непонимания (04:35)
09.Уеду! (08:22)

лог создания рипа

Exact Audio Copy V0.99 prebeta 4 from 23. January 2008
Отчёт EAC об извлечении, выполненном 2. марта 2009, 0:43
Игорь Тальков / СУД. (Вторая часть)
Дисковод: PLEXTOR CD-R   PX-W5224A   Adapter: 1  ID: 0
Режим чтения                 : Достоверность
Использование точного потока : Да
Отключение кэша аудио        : Да
Использование указателей C2  : Нет
Коррекция смещения при чтении                     : 30
Способность читать области Lead-in и Lead-out     : Нет
Заполнение пропущенных сэмплов тишиной            : Да
Удаление блоков с тишиной в начале и конце        : Нет
При вычислениях CRC использовались нулевые сэмплы : Да
Интерфейс                                         : Встроенный Win32-интерфейс для Win NT/2000
Выходной формат : Внутренние WAV-операции
Формат сэмплов  : 44.100 Гц; 16 бит; стерео
TOC извлечённого CD
     Трек |   Старт  | Длительность | Начальный сектор | Конечный сектор
    ---------------------------------------------------------------------
       1  |  0:00.00 |   12:27.04   |           0      |      56028
       2  | 12:27.04 |    6:40.31   |       56029      |      86059
       3  | 19:07.35 |   10:16.35   |       86060      |     132294
       4  | 29:23.70 |    7:26.05   |      132295      |     165749
       5  | 36:50.00 |    5:53.33   |      165750      |     192257
       6  | 42:43.33 |    5:29.50   |      192258      |     216982
       7  | 48:13.08 |    9:59.35   |      216983      |     261942
       8  | 58:12.43 |    4:35.00   |      261943      |     282567
       9  | 62:47.43 |    8:21.19   |      282568      |     320161
Характеристики диапазона извлечения и сообщения об ошибках
Выбранный диапазон
     Имя файла C:\Игорь Тальков\Таль\Суд_2\Игорь Тальков - СУД. (Вторая часть).wav
     Пиковый уровень 100.0 %
     Качество диапазона 100.0 %
     CRC копии 53243BD6
     Копирование... OK
Ошибок не произошло
Конец отчёта

содержание индексной карты *cue

REM GENRE Авторская песня,Русский рок
REM DATE ~2001
REM COMMENT
PERFORMER "Игорь Тальков"
TITLE "Суд (вторая часть)"
FILE "СУД (вторая часть).flac" WAVE
  TRACK 01 AUDIO
    TITLE "Россия"
    INDEX 01 00:00:00
  TRACK 02 AUDIO
    TITLE "Я вернусь"
    INDEX 01 12:27:09
  TRACK 03 AUDIO
    TITLE "Бал Сатаны"
    INDEX 01 19:07:40
  TRACK 04 AUDIO
    TITLE "Чистые пруды"
    INDEX 01 29:23:73
  TRACK 05 AUDIO
    TITLE "Звезда"
    INDEX 01 36:50:06
  TRACK 06 AUDIO
    TITLE "Самый лучший день"
    INDEX 01 42:43:36
  TRACK 07 AUDIO
    TITLE "Летний дождь"
    INDEX 01 48:13:09
  TRACK 08 AUDIO
    TITLE "Океан непонимания"
    INDEX 01 58:12:49
  TRACK 09 AUDIO
    TITLE "Уеду!"
    INDEX 01 62:47:43

2001 - Сцена | 00:58:28

01.Сцена (03:48)
02.Люди с забинтованными лбами (06:17)
03.Метаморфоза-1 (03:39)
04.Век Мамай (03:34)
05.Совки (03:15)
06.Стоп!..Думай себе! (03:14)
07.Кремлёвская стена (02:37)
08.Метоморфоза-2 (03:41)
09.Глобус (06:54)
10.Баллада об афганце (концертная запись) (03:37)
11.Памяти Виктора Цоя (04:58)
12.Этот путь (инструментал) (03:33)
13.Собрание в ЖЭКе (концертная запись) (06:41)
14.Сцена (концертная запись) (02:47)

лог создания рипа

Exact Audio Copy V0.99 prebeta 4 from 23. January 2008
Отчёт EAC об извлечении, выполненном 2. марта 2009, 1:59
Игорь Тальков / Сцена
Дисковод: PLEXTOR CD-R   PX-W5224A   Adapter: 1  ID: 0
Режим чтения                 : Достоверность
Использование точного потока : Да
Отключение кэша аудио        : Да
Использование указателей C2  : Нет
Коррекция смещения при чтении                     : 30
Способность читать области Lead-in и Lead-out     : Нет
Заполнение пропущенных сэмплов тишиной            : Да
Удаление блоков с тишиной в начале и конце        : Нет
При вычислениях CRC использовались нулевые сэмплы : Да
Интерфейс                                         : Встроенный Win32-интерфейс для Win NT/2000
Выходной формат : Внутренние WAV-операции
Формат сэмплов  : 44.100 Гц; 16 бит; стерео
TOC извлечённого CD
     Трек |   Старт  | Длительность | Начальный сектор | Конечный сектор
    ---------------------------------------------------------------------
       1  |  0:00.00 |    3:50.30   |           0      |      17279
       2  |  3:50.30 |    6:19.39   |       17280      |      45743
       3  | 10:09.69 |    3:42.05   |       45744      |      62398
       4  | 13:51.74 |    3:36.08   |       62399      |      78606
       5  | 17:28.07 |    3:17.29   |       78607      |      93410
       6  | 20:45.36 |    3:16.50   |       93411      |     108160
       7  | 24:02.11 |    2:38.66   |      108161      |     120076
       8  | 26:41.02 |    3:43.39   |      120077      |     136840
       9  | 30:24.41 |    6:56.00   |      136841      |     168040
      10  | 37:20.41 |    3:39.09   |      168041      |     184474
      11  | 40:59.50 |    5:00.56   |      184475      |     207030
      12  | 46:00.31 |    3:35.31   |      207031      |     223186
      13  | 49:35.62 |    6:42.67   |      223187      |     253403
      14  | 56:18.54 |    2:46.13   |      253404      |     265866
Характеристики диапазона извлечения и сообщения об ошибках
Выбранный диапазон
     Имя файла C:\Игорь Тальков\Таль\Сцена\Игорь Тальков - Сцена.wav
     Пиковый уровень 100.0 %
     Качество диапазона 100.0 %
     CRC копии 41C8E5EB
     Копирование... OK
Ошибок не произошло
Конец отчёта

содержание индексной карты *cue

REM GENRE Авторская песня,Русский рок
REM DATE ~2001
REM COMMENT
PERFORMER "Игорь Тальков"
TITLE "Сцена"
FILE "2001 - Сцена.flac" WAVE
  TRACK 01 AUDIO
    TITLE "Сцена"
    INDEX 01 00:00:00
  TRACK 02 AUDIO
    TITLE "Люди с забинтованными лбами"
    INDEX 01 03:47:21
  TRACK 03 AUDIO
    TITLE "Метаморфоза-1"
    INDEX 01 10:03:40
  TRACK 04 AUDIO
    TITLE "Век Мамай"
    INDEX 01 13:42:34
  TRACK 05 AUDIO
    TITLE "Совки"
    INDEX 01 17:15:60
  TRACK 06 AUDIO
    TITLE "Стоп!..Думай себе!"
    INDEX 01 20:30:28
  TRACK 07 AUDIO
    TITLE "Кремлёвская стена"
    INDEX 01 23:44:16
  TRACK 08 AUDIO
    TITLE "Метоморфоза-2"
    INDEX 01 26:20:19
  TRACK 09 AUDIO
    TITLE "Глобус"
    INDEX 01 30:00:70
  TRACK 10 AUDIO
    TITLE "Баллада об афганце (концертная запись)"
    INDEX 01 36:54:12
  TRACK 11 AUDIO
    TITLE "Памяти Виктора Цоя"
    INDEX 01 40:30:36
  TRACK 12 AUDIO
    TITLE "Этот путь (инструментал)"
    INDEX 01 45:28:33
  TRACK 13 AUDIO
    TITLE "Собрание в ЖЭКе (концертная запись)"
    INDEX 01 49:01:10
  TRACK 14 AUDIO
    TITLE "Сцена (концертная запись)"
    INDEX 01 55:41:19
--Не забываем говорить
[Профиль] [ЛС]
Кто просматривает тему:

Форум Тема Автор Размер
Author's Song (Author's Song) Александр Розенбаум - Музыка Стихов. Избранное (5CD box) Подарочное издание - 2011, MP3, 320 kbps sergej644 1.1 GB
Шансон, авторская и военная песня (Author's Song) Владимир Высоцкий - Коллекция (New Sound) [15] - 2005 - 2007, MP3 (tracks+image) , 320 kbps sergej644 2.07 GB
Шансон, авторская и военная песня (Author's Song) Владимир Высоцкий - Лучшее (1, 2 Том) (4 CD) - 2008 [MP3, tracks, 320 kbps] sergej644 724 MB
Шансон, авторская и военная песня (Author's Song) Владимир Высоцкий в записях Михаила Шемякина (7CD) - Коллекция - 1996 [MP3, tracks, 320 kbps] sergej644 939 MB
Author's Song (Author's Song) Владимир Высоцкий. Спасибо, что живой (Коллекция изд. Амфора, 11 CD) 2011 - 2012, FLAC (image + .cue), lossless sergej644 2.53 GB
Шансон, авторская и военная песня (Author's Song) Владимир Высоцкий. Спасибо, что живой (Коллекция изд. Амфора, 11 CD) 2011 - 2012, [MP3, tracks, 320 kbps] sergej644 1.05 GB
Author's Song (Author's Song) Высоцкий - Любимые песни и баллады - 2013 [APE, image+.cue, lossless] sergej644 395 MB
Author's Song (Author's Song) Никольский Константин - Музыкант (Лучшие песни) (2CD) - 2015 [FLAC, image+.cue, lossless] sergej644 765 MB
Показать сообщения:    

Текущее время: Сегодня 14:34

Часовой пояс: GMT



Вы не можете начинать темы
Вы не можете отвечать на сообщения
Вы не можете редактировать свои сообщения
Вы не можете удалять свои сообщения
Вы не можете голосовать в опросах
Вы не можете прикреплять файлы к сообщениям
Вы не можете скачивать файлы