(Авторская песня) Игорь Тальков - Лучшее (2CD) - 1986-1991, FLAC (image+.cue), lossless

 
Автор Сообщение

sergej644 ®

Пол:

Стаж: 4 года 11 месяцев

Сообщений: 6045

Откуда: Soviet Union



Награды: Нет

Торрент-статистика

Создавать темы 06-Сен-2014 06:58

[Цитировать]

-Игорь Тальков / Лучшее (2CD)
Жанр: Авторская песня
Страна-производитель диска: Украина
Год создания: 1686 - 1991
Год издания: Неизвестен
Издатель (лейбл): BEST Records
Номер по каталогу: cd 1258
Страна: Россия
Аудиокодек: FLAC (*.flac)
Тип рипа: image+.cue
Битрейт аудио: lossless
Продолжительность: CD1 - 79:34; CD2 - 79:00
Источник (релизер): Собственный CD
Наличие сканов в содержимом раздачи: да

CD1

Треклист:
01. Моя любовь
02. У твоего окна
03. Летний дождь
04. Ностальгия
05. Я тебя люблю
06. Ты опоздала
07. Таня
08. Чистые пруды (live)
09. Самый лучший день
10. Океан непонимания (live)
11. Саквояж
12. Моя любовь (2)
13. Маленькая планета
14. Память
15. Солнце уходит на запад

Лог создания рипа

Exact Audio Copy V1.0 beta 3 from 29. August 2011
Отчёт EAC об извлечении, выполненном 13. июля 2012, 19:03
Игорь Тальков / Игорь Тальков - Лучшее (CD1)
Дисковод: Optiarc DVD RW AD-7170A   Adapter: 0  ID: 0
Режим чтения                 : Достоверность
Использование точного потока : Да
Отключение кэша аудио        : Да
Использование указателей C2  : Нет
Коррекция смещения при чтении                     : 48
Способность читать области Lead-in и Lead-out     : Нет
Заполнение пропущенных сэмплов тишиной            : Да
Удаление блоков с тишиной в начале и конце        : Нет
При вычислениях CRC использовались нулевые сэмплы : Да
Интерфейс                                         : Встроенный Win32-интерфейс для Win NT/2000
Выходной формат          : Пользовательский кодировщик
Выбранный битрейт        : 128 kBit/s
Качество                 : Высокий
Добавление ID3-тега      : Нет
Утилита сжатия           : C:\Program Files\Exact Audio Copy\Flac\flac.exe
Дополнительные параметры : -V -8 -T "Date=%year%" -T "Genre=%genre%" %source%
TOC извлечённого CD
     Трек |   Старт  | Длительность | Начальный сектор | Конечный сектор
    ---------------------------------------------------------------------
       1  |  0:00.00 |    6:04.20   |           0      |      27319
       2  |  6:04.20 |    5:18.70   |       27320      |      51239
       3  | 11:23.15 |    8:18.50   |       51240      |      88639
       4  | 19:41.65 |    5:19.47   |       88640      |     112611
       5  | 25:01.37 |    5:53.31   |      112612      |     139117
       6  | 30:54.68 |    3:52.10   |      139118      |     156527
       7  | 34:47.03 |    4:46.68   |      156528      |     178045
       8  | 39:33.71 |    7:22.58   |      178046      |     211253
       9  | 46:56.54 |    4:02.64   |      211254      |     229467
      10  | 50:59.43 |    4:06.71   |      229468      |     247988
      11  | 55:06.39 |    3:54.06   |      247989      |     265544
      12  | 59:00.45 |    2:59.67   |      265545      |     279036
      13  | 62:00.37 |    4:46.07   |      279037      |     300493
      14  | 66:46.44 |    5:38.00   |      300494      |     325843
      15  | 72:24.44 |    7:10.22   |      325844      |     358115
Характеристики диапазона извлечения и сообщения об ошибках
Выбранный диапазон
     Имя файла I:\Раздачи для Рутрекера\Игорь Тальков - Лучшее (2CD)\Игорь Тальков - Лучшее (CD1)\Игорь Тальков - Лучшее (CD1).wav
     Пиковый уровень 100.0 %
     Скорость извлечения 3.5 X
     Качество диапазона 99.8 %
     CRC теста 2B97DA04
     CRC копии 2B97DA04
     Копирование... OK
Ошибок не произошло
AccurateRip: сводка
Трек  1  отсутствует в базе данных
Трек  2  отсутствует в базе данных
Трек  3  отсутствует в базе данных
Трек  4  отсутствует в базе данных
Трек  5  отсутствует в базе данных
Трек  6  отсутствует в базе данных
Трек  7  отсутствует в базе данных
Трек  8  отсутствует в базе данных
Трек  9  отсутствует в базе данных
Трек 10  отсутствует в базе данных
Трек 11  отсутствует в базе данных
Трек 12  отсутствует в базе данных
Трек 13  отсутствует в базе данных
Трек 14  отсутствует в базе данных
Трек 15  отсутствует в базе данных
Ни одного трека нет в базе AccurateRip
Конец отчёта
==== Контрольная сумма отчёта 1C07016289501BA7FBF9D38D08208C76F5979715DFB8D9DADD7B750F25AB20D8 ====

Лог проверки качества

Скриншот спектра частот

-

CD2

Треклист:
01. Родина моя
02. Россия
03. Бывший подъесаул
04. Памяти В.Цоя (live)
05. Фатальная колесница
06. Замкнутый круг
07. Метаморфоза-1
08. Забинтованные лбы
09. Господа демократы
10. Революционная ламбада (live)
11. Звезда (live)
12. Война
13. Глобус
14. Бал сатаны
15. Я вернусь

Лог создания рипа

Exact Audio Copy V1.0 beta 3 from 29. August 2011
Отчёт EAC об извлечении, выполненном 13. июля 2012, 22:27
Игорь Тальков / Игорь Тальков - Лучшее (CD2)
Дисковод: Optiarc DVD RW AD-7170A   Adapter: 0  ID: 0
Режим чтения                 : Достоверность
Использование точного потока : Да
Отключение кэша аудио        : Да
Использование указателей C2  : Нет
Коррекция смещения при чтении                     : 48
Способность читать области Lead-in и Lead-out     : Нет
Заполнение пропущенных сэмплов тишиной            : Да
Удаление блоков с тишиной в начале и конце        : Нет
При вычислениях CRC использовались нулевые сэмплы : Да
Интерфейс                                         : Встроенный Win32-интерфейс для Win NT/2000
Выходной формат          : Пользовательский кодировщик
Выбранный битрейт        : 128 kBit/s
Качество                 : Высокий
Добавление ID3-тега      : Нет
Утилита сжатия           : C:\Program Files\Exact Audio Copy\Flac\flac.exe
Дополнительные параметры : -V -8 -T "Date=%year%" -T "Genre=%genre%" %source%
TOC извлечённого CD
     Трек |   Старт  | Длительность | Начальный сектор | Конечный сектор
    ---------------------------------------------------------------------
       1  |  0:00.00 |    6:49.33   |           0      |      30707
       2  |  6:49.33 |    7:12.15   |       30708      |      63122
       3  | 14:01.48 |    5:55.73   |       63123      |      89820
       4  | 19:57.46 |    4:18.35   |       89821      |     109205
       5  | 24:16.06 |    6:18.36   |      109206      |     137591
       6  | 30:34.42 |    6:00.12   |      137592      |     164603
       7  | 36:34.54 |    3:38.18   |      164604      |     180971
       8  | 40:12.72 |    6:11.70   |      180972      |     208866
       9  | 46:24.67 |    3:46.34   |      208867      |     225850
      10  | 50:11.26 |    1:31.57   |      225851      |     232732
      11  | 51:43.08 |    5:52.35   |      232733      |     259167
      12  | 57:35.43 |    3:37.51   |      259168      |     275493
      13  | 61:13.19 |    6:47.03   |      275494      |     306021
      14  | 68:00.22 |    4:46.22   |      306022      |     327493
      15  | 72:46.44 |    6:13.34   |      327494      |     355502
Характеристики диапазона извлечения и сообщения об ошибках
Выбранный диапазон
     Имя файла I:\Раздачи для Рутрекера\Игорь Тальков - Лучшее (2CD)\CD2\Игорь Тальков - Лучшее (CD2).wav
     Пиковый уровень 100.0 %
     Скорость извлечения 4.8 X
     Качество диапазона 99.9 %
     CRC теста BC44D883
     CRC копии BC44D883
     Копирование... OK
Ошибок не произошло
AccurateRip: сводка
Трек  1  отсутствует в базе данных
Трек  2  отсутствует в базе данных
Трек  3  отсутствует в базе данных
Трек  4  отсутствует в базе данных
Трек  5  отсутствует в базе данных
Трек  6  отсутствует в базе данных
Трек  7  отсутствует в базе данных
Трек  8  отсутствует в базе данных
Трек  9  отсутствует в базе данных
Трек 10  отсутствует в базе данных
Трек 11  отсутствует в базе данных
Трек 12  отсутствует в базе данных
Трек 13  отсутствует в базе данных
Трек 14  отсутствует в базе данных
Трек 15  отсутствует в базе данных
Ни одного трека нет в базе AccurateRip
Конец отчёта
==== Контрольная сумма отчёта 6FDBA7D4047BF650474F29FEBE04659DA6A147DEDC810D810E56E853617E4116 ====

Лог проверки качества

Скриншот спектра частот

-

Scans

Список песен, представленный на обложке альбома, немного отличается от записанного на дисках.
[Профиль] [ЛС]

Создавать темы 13-Авг-2015 10:28 (спустя 11 месяцев 7 дней)

Топик был перенесен из форума Отечественная в форум Author's Song
sergej644
 
Кто просматривает тему:

Показать сообщения:    

Текущее время: Сегодня 16:25

Часовой пояс: GMT



Вы не можете начинать темы
Вы не можете отвечать на сообщения
Вы не можете редактировать свои сообщения
Вы не можете удалять свои сообщения
Вы не можете голосовать в опросах
Вы не можете прикреплять файлы к сообщениям
Вы не можете скачивать файлы