Ивась (И. Вано) [1940, СССР, политическая агитка, VHSRip]

 
Автор Сообщение

TorrentFilm ®

Пол:

Стаж: 2 года

Сообщений: 7741



Награды: Нет

Торрент-статистика

Создавать темы 25-Янв-2016 00:08

[Цитировать]

Ивась
Страна: СССР
Жанр: политическая агитка
Продолжительность: 00:19:58
Год выпуска: 1940
Режиссёр: Иван Иванов-Вано
Роли озвучивали: Б. Толмазов, Г. Милляр, В. Лепко, С. Мартинсон, А. Горюнов
Описание: История из времён, когда Белоруссия была под Польшей. Деревенского парня Ивась забирают в польскую армию. Муштра, издевательства, казнокрадство, чванство. Но всё меняется с наступлением Красной Армии.
Доп. информация: http://www.kinopoisk.ru/film/818602/
Семпл: https://yadi.sk/i/3aCXkzanmjxi2
Качество: WEBRip-AVC
Формат: MP4
Видео: avc1, 4:3, 492 x 360 pixels, 25 fps, 377 Kbps
Аудио: AAC, 44.1 KHz, 2 ch, 96.0 Kbps
Субтитры: нет

Подробные технические данные

GeneralComplete name : F:\Раздача на рутрекер файлы\Ивась 1940.mp4Format : MPEG-4Format profile : Base Media / Version 2Codec ID : mp42File size : 68.0 MiBDuration : 19mn 58sOverall bit rate mode : VariableOverall bit rate : 476 KbpsEncoded date : UTC 2015-11-07 06:00:23Tagged date : UTC 2015-11-07 06:00:23gsst : 0gstd : 1198543gssd : BADC292C9gshh : r9---sn-n8v7znez.googlevideo.com
VideoID : 1Format : AVCFormat/Info : Advanced Video CodecFormat profile : Baseline@L2.1Format settings, CABAC : NoFormat settings, ReFrames : 1 frameFormat settings, GOP : M=1, N=60Codec ID : avc1Codec ID/Info : Advanced Video CodingDuration : 19mn 58sBit rate : 377 KbpsMaximum bit rate : 1 059 KbpsWidth : 492 pixelsHeight : 360 pixelsDisplay aspect ratio : 4:3Frame rate mode : ConstantFrame rate : 25.000 fpsColor space : YUVChroma subsampling : 4:2:0Bit depth : 8 bitsScan type : ProgressiveBits/(Pixel*Frame) : 0.085Stream size : 53.9 MiB (79%)Tagged date : UTC 2015-11-07 06:00:28
AudioID : 2Format : AACFormat/Info : Advanced Audio CodecFormat profile : LCCodec ID : 40Duration : 19mn 58sBit rate mode : VariableBit rate : 96.0 KbpsMaximum bit rate : 103 KbpsChannel(s) : 2 channelsChannel positions : Front: L RSampling rate : 44.1 KHzCompression mode : LossyStream size : 13.7 MiB (20%)Title : IsoMedia File Produced by Google, 5-11-2011Language : EnglishEncoded date : UTC 2015-11-07 06:00:26Tagged date : UTC 2015-11-07 06:00:28

Скриншоты

[Профиль] [ЛС]
Кто просматривает тему:

Показать сообщения:    

Текущее время: Сегодня 12:24

Часовой пояс: GMT



Вы не можете начинать темы
Вы не можете отвечать на сообщения
Вы не можете редактировать свои сообщения
Вы не можете удалять свои сообщения
Вы не можете голосовать в опросах
Вы не можете прикреплять файлы к сообщениям
Вы не можете скачивать файлы