Иван Царевич и Серый Волк 3 (2015) WEB-DLRip-AVC | iTunes Russia

 
Автор Сообщение

достали все ®

Пол:

Стаж: 1 год 8 месяцев

Сообщений: 6586



Награды: 12 (Подробнее)

Mega Seeder 4 (Количество: 1) Top Releaser 2 (Количество: 1) Mega Seeder 3 (Количество: 1)
Торрент-статистика

Создавать темы 03-Фев-2016 09:26

[Цитировать]

Информация о фильме
Оригинальное название: Иван Царевич и Серый Волк 3
Год выпуска: 2015
Жанр: Мультфильм, приключения, семейный
Выпущено: Россия, Кинокомпания СТВ, Анимационная студия Мельница
Режиссер: Дарина Шмидт
В ролях: Никита Ефремов, Иван Охлобыстин, Михаил Боярский
О фильме: Царь Тридевятого царства, в честь своего 150-летия решил, что с него хватит — пора на заслуженный отдых. «Я устал. Я ухожу», — заявил самодержец и с удочкой и ведёрком удалился в деревенскую глушь. А оберегать государство остались Иван с Серым Волком. Вот только Василиса, жена Ивана, заявила, что свадебного путешествия у неё не было, заграницу она не видела, «постить» в инстаграм решительно нечего и вообще. Иван спорить не стал, а вместе с Василисой, Котом — ученым и Серым Волком, погрузился на ковер-самолет и отправился в путь. А за главного в стране герои оставили самое обычное огородное пугало… Но пока компания шаталась по Миланам и Парижам, Пугало ожило и начало наводить свои порядки в Тридевятом царстве…

Файл
Качество: WEB-DLRip (AVC)
Видео: MPEG-4 AVC, 2169 Кбит/с, 1024x576, 24 кадр/с
Аудио: Русский (AC3, 6 ch, 384 Кбит/с)
Размер: 1.37 ГБ
Продолжительность: 01:16:55
Язык: Русский
Озвучивание - iTunes Russia
Сохранены оригинальные чаптеры как на исходном WEB-DL.

x264

x264 [info]: frame I:1166 Avg QP:12.67 size:105827
x264 [info]: frame P:32467 Avg QP:15.69 size: 21689
x264 [info]: frame B:77138 Avg QP:16.20 size: 5468
x264 [info]: consecutive B-frames: 5.6% 7.1% 6.1% 67.4% 5.6% 5.1% 0.8% 1.1% 0.4% 0.9%
x264 [info]: mb I I16..4: 14.6% 43.9% 41.6%
x264 [info]: mb P I16..4: 0.8% 4.7% 2.0% P16..4: 25.3% 24.7% 11.7% 4.9% 0.8% skip:25.1%
x264 [info]: mb B I16..4: 0.1% 0.3% 0.2% B16..8: 21.8% 12.4% 3.3% direct: 3.7% skip:58.2% L0:43.7% L1:48.4% BI: 7.9%
x264 [info]: 8x8 transform intra:55.8% inter:27.7%
x264 [info]: direct mvs spatial:97.4% temporal:2.6%
x264 [info]: coded y,uvDC,uvAC intra: 84.0% 86.5% 78.2% inter: 14.0% 16.3% 12.4%
x264 [info]: i16 v,h,dc,p: 27% 22% 20% 31%
x264 [info]: i8 v,h,dc,ddl,ddr,vr,hd,vl,hu: 11% 14% 16% 8% 9% 8% 10% 9% 13%
x264 [info]: i4 v,h,dc,ddl,ddr,vr,hd,vl,hu: 15% 14% 9% 9% 11% 10% 11% 9% 13%
x264 [info]: i8c dc,h,v,p: 46% 27% 17% 10%
x264 [info]: Weighted P-Frames: Y:3.0% UV:1.8%
x264 [info]: ref P L0: 57.0% 3.2% 16.0% 6.3% 4.7% 3.7% 3.1% 1.9% 1.9% 1.9% 0.4% 0.0%
x264 [info]: ref B L0: 70.6% 12.1% 6.2% 3.2% 2.7% 2.0% 1.6% 0.9% 0.7%
x264 [info]: ref B L1: 93.9% 6.1%
x264 [info]: kb/s:2165.49

Инфо-файл

Общее
Уникальный идентификатор : 186216678431233768041125076325971675089 (0x8C1807183B721FF6B8C7D7EACB5E47D1)
Полное имя : D:ЗагрузкиRIPIvan.Carevich.I.Serij.Volk.3.2015.x264.WEB-DLRip.(AVC).ExKinoRay.mkv
Формат : Matroska
Версия формата : Version 2
Размер файла : 1,37 Гбайт
Продолжительность : 1 ч. 16 м.
Общий поток : 2551 Кбит/сек
Название фильма : Иван Царевич и Серый Волк 3.2015.Rip by: ollan
Дата кодирования : UTC 2016-02-03 08:20:09
Программа кодирования : mkvmerge v5.6.0 ('Kenya Kane') built on May 27 2012 16:44:04
Библиотека кодирования : libebml v1.2.3 + libmatroska v1.3.0
Видео
Идентификатор : 1
Формат : AVC
Формат/Информация : Advanced Video Codec
Профиль формата : High@L4.1
Параметр CABAC формата : Да
Параметр ReFrames формата : 10 кадров
Идентификатор кодека : V_MPEG4/ISO/AVC
Продолжительность : 1 ч. 16 м.
Битрейт : 2169 Кбит/сек
Ширина : 1024 пикселя
Высота : 576 пикселей
Соотношение сторон : 16:9
Режим частоты кадров : Постоянный
Частота кадров : 24,000 кадра/сек
Цветовое пространство : YUV
Субдискретизация насыщенности : 4:2:0
Битовая глубина : 8 бит
Тип развёртки : Прогрессивная
Бит/(Пиксели*Кадры) : 0.153
Размер потока : 1,14 Гбайт (83%)
Библиотека кодирования : x264 core 125 r2200 999b753
Настройки программы : cabac=1 / ref=10 / deblock=1:-3:-3 / analyse=0x3:0x133 / me=umh / subme=11 / psy=1 / psy_rd=1.00:0.07 / mixed_ref=1 / me_range=48 / chroma_me=1 / trellis=2 / 8x8dct=1 / cqm=0 / deadzone=21,11 / fast_pskip=0 / chroma_qp_offset=-3 / threads=12 / lookahead_threads=2 / sliced_threads=0 / nr=0 / decimate=0 / interlaced=0 / bluray_compat=0 / constrained_intra=0 / bframes=9 / b_pyramid=2 / b_adapt=2 / b_bias=0 / direct=3 / weightb=1 / open_gop=0 / weightp=2 / keyint=240 / keyint_min=23 / scenecut=40 / intra_refresh=0 / rc=2pass / mbtree=0 / bitrate=2169 / ratetol=1.0 / qcomp=0.60 / qpmin=0 / qpmax=69 / qpstep=4 / cplxblur=20.0 / qblur=0.5 / ip_ratio=1.40 / pb_ratio=1.30 / aq=1:1.00
Язык : Russian
Default : Да
Forced : Нет
Аудио
Идентификатор : 2
Формат : AC-3
Формат/Информация : Audio Coding 3
Расширение режима : CM (complete main)
Параметр Endianness формата : Big
Идентификатор кодека : A_AC3
Продолжительность : 1 ч. 16 м.
Вид битрейта : Постоянный
Битрейт : 384 Кбит/сек
Каналы : 6 каналов
Расположение каналов : Front: L C R, Side: L R, LFE
Частота : 48,0 КГц
Битовая глубина : 16 бит
Метод сжатия : С потерями
Размер потока : 211 Мбайт (15%)
Язык : Russian
Default : Да
Forced : Нет
Меню
00:00:00.000 : ru:Chapter 01
00:03:39.541 : ru:Chapter 02
00:06:27.499 : ru:Chapter 03
00:10:29.040 : ru:Chapter 04
00:15:02.873 : ru:Chapter 05
00:20:07.081 : ru:Chapter 06
00:25:29.414 : ru:Chapter 07
00:30:57.080 : ru:Chapter 08
00:36:55.705 : ru:Chapter 09
00:41:58.871 : ru:Chapter 10
00:46:41.537 : ru:Chapter 11
00:51:33.245 : ru:Chapter 12
00:57:08.286 : ru:Chapter 13
01:01:36.911 : ru:Chapter 14
01:07:09.369 : ru:Chapter 15

Скриншоты



Rip by:
[Профиль] [ЛС]
Кто просматривает тему:

Показать сообщения:    

Текущее время: Сегодня 08:04

Часовой пояс: GMT



Вы не можете начинать темы
Вы не можете отвечать на сообщения
Вы не можете редактировать свои сообщения
Вы не можете удалять свои сообщения
Вы не можете голосовать в опросах
Вы не можете прикреплять файлы к сообщениям
Вы не можете скачивать файлы