Иван Царевич и Серый Волк (Владимир Торопчин) [2011, мультфильм, комедия, приключения, HDRip]

 
Автор Сообщение

reversefile ®

Пол:

Стаж: 5 лет 1 месяц

Сообщений: 842

Откуда: ReverseFile.org



Награды: Нет

Торрент-статистика

Создавать темы 21-Июл-2014 18:12

[Цитировать]

Иван Царевич и Серый Волк
Страна: Россия
Жанр: мультфильм, комедия, приключения
Продолжительность: 01:25:58
Год выпуска: 2011
Режиссёр: Владимир Торопчин
Роли озвучивали:
Никита Ефремов
Иван Охлобыстин
Артур Смольянинов
Лия Ахеджакова
Кристина Асмус
Виктор Сухоруков
Сергей Гармаш
Михаил Боярский
Татьяна Бунина
Сергей Русскин
Описание:
Увлекательная история от создателей богатырской трилогии, в которой героев русских народных сказок ждут новые приключения, опасности и забавные ситуации.
Доп. информация: Рип Captain_Max.

Качество: HDRip, исходник - BDRip 720p
Формат: AVI
Видео: 656x352 (1.86:1), 23.976 fps, XviD build 64 ~1088 kbps avg, 0.20 bit/pixel
Аудио: 48 kHz, MPEG Layer 3, 2 ch, ~128.00 kbps avg
Сэмпл

Подробные технические данные

Общее
Полное имя                               : D:\Torrent\Иван Царевич и Серый Волк_745\Иван Царевич и Серый Волк_745_HDRip.avi
Формат                                   : AVI
Формат/Информация                        : Audio Video Interleave
Размер файла                             : 754 Мбайт
Продолжительность                        : 1 ч. 25 м.
Общий поток                              : 1226 Кбит/сек
Программа кодирования                    : VirtualDubMod 1.5.10.3 | www.virtualdub-fr.org || (build 2550/release)
Библиотека кодирования                   : VirtualDubMod build 2550/release
Видео
Идентификатор                            : 0
Формат                                   : MPEG-4 Visual
Профиль формата                          : Advanced Simple@L5
Параметр BVOP формата                    : 1
Параметр QPel формата                    : Нет
Параметр GMC формата                     : Без точки перехода
Параметр матрицы формата                 : Выборочная
Идентификатор кодека                     : XVID
Идентификатор кодека/Подсказка           : XviD
Продолжительность                        : 1 ч. 25 м.
Битрейт                                  : 1088 Кбит/сек
Ширина                                   : 656 пикселей
Высота                                   : 352 пикселя
Соотношение сторон                       : 1,864
Частота кадров                           : 23,976 кадра/сек
Цветовое пространство                    : YUV
Субдискретизация насыщенности            : 4:2:0
Битовая глубина                          : 8 бит
Тип развёртки                            : Прогрессивная
Метод сжатия                             : С потерями
Бит/(Пиксели*Кадры)                      : 0.197
Размер потока                            : 669 Мбайт (89%)
Библиотека кодирования                   : XviD 64
Аудио
Идентификатор                            : 1
Формат                                   : MPEG Audio
Версия формата                           : Version 1
Профиль формата                          : Layer 3
Идентификатор кодека                     : 55
Идентификатор кодека/Подсказка           : MP3
Продолжительность                        : 1 ч. 25 м.
Вид битрейта                             : Постоянный
Битрейт                                  : 128 Кбит/сек
Каналы                                   : 2 канала
Частота                                  : 48,0 КГц
Метод сжатия                             : С потерями
Размер потока                            : 78,7 Мбайт (10%)
Выравнивание                             : Соединение по промежуткам
Продолжительность промежутка             : 42  мс. (1,00 видеокадр)
Время предзагрузки промежутка            : 504  мс.
Библиотека кодирования                   : LAME3.98r
Настройки программы                      : -m s -V 4 -q 0 -lowpass 17 -b 128

Скриншоты


[Профиль] [ЛС]
Кто просматривает тему:

Показать сообщения:    

Текущее время: Сегодня 22:50

Часовой пояс: GMT



Вы не можете начинать темы
Вы не можете отвечать на сообщения
Вы не можете редактировать свои сообщения
Вы не можете удалять свои сообщения
Вы не можете голосовать в опросах
Вы не можете прикреплять файлы к сообщениям
Вы не можете скачивать файлы