(Chanson) Иван Кучин - Чёрное золото - 2014 [FLAC, image+.cue, lossless]

 
Автор Сообщение

sergej644 ®

Пол:

Стаж: 4 года 11 месяцев

Сообщений: 6041

Откуда: Soviet Union



Награды: Нет

Торрент-статистика

Создавать темы 19-Мар-2015 10:29

[Цитировать]

-Иван Кучин / Чёрное золото-- Год издания: 2014
Страна: Россия
Жанр: Chanson
Продолжительность: 00:54:55-Лейбл издания: United music group
Страна-выпуска диска: Россия
Номер по каталогу: UMG CD 14-064
Формат: FLAC
Битрейт аудио: lossless
Тип рипа: image+.cue
Наличие сканов в содержимом раздачи: да
-

Трэклист

01.Колокола (04:04)
02.Чёрное золото (03:47)
03.Друг (04:00)
04.А в кабаке (04:22)
05.Бывший зек (03:57)
06.Портрет (03:57)
07.Фотокарточка (03:47)
08.Нищенка (03:32)
09.Гимназисточка (03:55)
10.Мамины слёзы (04:22)
11.Судьба-злодейка (03:45)
12.Розовый конь (03:35)
13.Караван (03:59)
14.Последнее письмо (03:47)

Лог создания рипа

Exact Audio Copy V1.0 beta 3 from 29. August 2011
Отчёт EAC об извлечении, выполненном 6. января 2015, 21:49
Иван Кучин / Чёрное золото
Дисковод: HL-DT-STDVDRAM GH22NS70   Adapter: 0  ID: 1
Режим чтения                 : Достоверность
Использование точного потока : Да
Отключение кэша аудио        : Да
Использование указателей C2  : Нет
Коррекция смещения при чтении                     : 667
Способность читать области Lead-in и Lead-out     : Нет
Заполнение пропущенных сэмплов тишиной            : Да
Удаление блоков с тишиной в начале и конце        : Нет
При вычислениях CRC использовались нулевые сэмплы : Да
Интерфейс                                         : Встроенный Win32-интерфейс для Win NT/2000
Выходной формат : Внутренние WAV-операции
Формат сэмплов  : 44.100 Гц; 16 бит; стерео
TOC извлечённого CD
     Трек |   Старт  | Длительность | Начальный сектор | Конечный сектор
    ---------------------------------------------------------------------
       1  |  0:00.00 |    4:04.61   |           0      |      18360
       2  |  4:04.61 |    3:47.10   |       18361      |      35395
       3  |  7:51.71 |    4:00.24   |       35396      |      53419
       4  | 11:52.20 |    4:22.12   |       53420      |      73081
       5  | 16:14.32 |    3:57.35   |       73082      |      90891
       6  | 20:11.67 |    3:57.57   |       90892      |     108723
       7  | 24:09.49 |    3:47.07   |      108724      |     125755
       8  | 27:56.56 |    3:32.57   |      125756      |     141712
       9  | 31:29.38 |    3:55.32   |      141713      |     159369
      10  | 35:24.70 |    4:22.58   |      159370      |     179077
      11  | 39:47.53 |    3:45.45   |      179078      |     195997
      12  | 43:33.23 |    3:35.23   |      195998      |     212145
      13  | 47:08.46 |    3:59.42   |      212146      |     230112
      14  | 51:08.13 |    3:47.16   |      230113      |     247153
Характеристики диапазона извлечения и сообщения об ошибках
Выбранный диапазон
     Имя файла C:\defyz86\2014 - Иван Кучин - Чёрное золото\Иван Кучин - Чёрное золото.wav
     Пиковый уровень 96.7 %
     Скорость извлечения 7.3 X
     Качество диапазона 100.0 %
     CRC теста B28E4953
     CRC копии B28E4953
     Копирование... OK
Ошибок не произошло
AccurateRip: сводка
Трек  1  : извлечено точно (доверие 1)  [74404ED2]  (AR v2)
Трек  2  : извлечено точно (доверие 1)  [BBDC393A]  (AR v2)
Трек  3  : извлечено точно (доверие 1)  [B6A55D95]  (AR v2)
Трек  4  : извлечено точно (доверие 1)  [F36EDC15]  (AR v2)
Трек  5  : извлечено точно (доверие 1)  [357B1453]  (AR v2)
Трек  6  : извлечено точно (доверие 1)  [394FB17B]  (AR v2)
Трек  7  : извлечено точно (доверие 1)  [A9FC029D]  (AR v2)
Трек  8  : извлечено точно (доверие 1)  [675827D9]  (AR v2)
Трек  9  : извлечено точно (доверие 1)  [F3F45E15]  (AR v2)
Трек 10  : извлечено точно (доверие 1)  [EF298A67]  (AR v2)
Трек 11  : извлечено точно (доверие 1)  [5FC0D007]  (AR v2)
Трек 12  : извлечено точно (доверие 1)  [C82F7297]  (AR v2)
Трек 13  : извлечено точно (доверие 1)  [3A836F88]  (AR v2)
Трек 14  : извлечено точно (доверие 1)  [6A10372B]  (AR v2)
Все треки извлечены точно
Конец отчёта

Индексная карта (non-compilant .cue)

REM GENRE Chanson
REM DATE 2014
REM DISCID BF0CDF0E
REM COMMENT "ExactAudioCopy v1.0b3"
PERFORMER "Иван Кучин"
TITLE "Чёрное золото"
FILE "Иван Кучин - Чёрное золото.flac" WAVE
  TRACK 01 AUDIO
    TITLE "Колокола"
    PERFORMER "Иван Кучин"
    INDEX 01 00:00:00
  TRACK 02 AUDIO
    TITLE "Чёрное золото"
    PERFORMER "Иван Кучин"
    INDEX 00 04:03:66
    INDEX 01 04:04:61
  TRACK 03 AUDIO
    TITLE "Друг"
    PERFORMER "Иван Кучин"
    INDEX 00 07:51:01
    INDEX 01 07:51:71
  TRACK 04 AUDIO
    TITLE "А в кабаке"
    PERFORMER "Иван Кучин"
    INDEX 00 11:51:25
    INDEX 01 11:52:20
  TRACK 05 AUDIO
    TITLE "Бывший зек"
    PERFORMER "Иван Кучин"
    INDEX 00 16:13:37
    INDEX 01 16:14:32
  TRACK 06 AUDIO
    TITLE "Портрет"
    PERFORMER "Иван Кучин"
    INDEX 00 20:10:72
    INDEX 01 20:11:67
  TRACK 07 AUDIO
    TITLE "Фотокарточка"
    PERFORMER "Иван Кучин"
    INDEX 00 24:08:54
    INDEX 01 24:09:49
  TRACK 08 AUDIO
    TITLE "Нищенка"
    PERFORMER "Иван Кучин"
    INDEX 00 27:55:61
    INDEX 01 27:56:56
  TRACK 09 AUDIO
    TITLE "Гимназисточка"
    PERFORMER "Иван Кучин"
    INDEX 00 31:28:43
    INDEX 01 31:29:38
  TRACK 10 AUDIO
    TITLE "Мамины слёзы"
    PERFORMER "Иван Кучин"
    INDEX 00 35:24:00
    INDEX 01 35:24:70
  TRACK 11 AUDIO
    TITLE "Судьба-злодейка"
    PERFORMER "Иван Кучин"
    INDEX 00 39:46:58
    INDEX 01 39:47:53
  TRACK 12 AUDIO
    TITLE "Розовый конь"
    PERFORMER "Иван Кучин"
    INDEX 00 43:32:28
    INDEX 01 43:33:23
  TRACK 13 AUDIO
    TITLE "Караван"
    PERFORMER "Иван Кучин"
    INDEX 00 47:07:51
    INDEX 01 47:08:46
  TRACK 14 AUDIO
    TITLE "Последнее письмо"
    PERFORMER "Иван Кучин"
    INDEX 00 51:07:18
    INDEX 01 51:08:13

Лог Audiochecker

AUDIOCHECKER v2.0 beta (build 457) - by Dester - opdester@freemail.hu
~~~~~~~~~~~~~~~~~~~~~~~~~~~~~~~~~~
-=== НЕ РЕДАКТИРУЙТЕ ЭТОТ ФАЙЛ! ===-
Путь: ...\2014 - Иван Кучин - Чёрное золото
1 -=- Иван Кучин - Чёрное золото.flac -=- CDDA (100%)
125378948

Скриншот спектра частот

-Не забываем говорить
[Профиль] [ЛС]

Создавать темы 13-Авг-2015 11:04 (спустя 4 месяца 25 дней)

Топик был перенесен из форума Шансон и авторская песня в форум Сhanson
sergej644
 
Показать сообщения:    

Текущее время: Сегодня 08:31

Часовой пояс: GMT



Вы не можете начинать темы
Вы не можете отвечать на сообщения
Вы не можете редактировать свои сообщения
Вы не можете удалять свои сообщения
Вы не можете голосовать в опросах
Вы не можете прикреплять файлы к сообщениям
Вы не можете скачивать файлы