(Шансон) Иван Кучин - Серия «SUPER HITS COLLECTION. 20 лучших песен» - 2013, FLAC (image+.cue), lossless

 
Автор Сообщение

sergej644 ®

Пол:

Стаж: 4 года 11 месяцев

Сообщений: 6042

Откуда: Soviet Union



Награды: Нет

Торрент-статистика

Создавать темы 14-Июл-2015 04:26

[Цитировать]

Иван Кучин / Серия «SUPER HITS COLLECTION. 20 лучших песен»
Жанр: Шансон
Страна-производитель диска: Россия
Год издания: 2013
Издатель (лейбл): Классик Компани
Номер по каталогу: CC CD 28/13
Страна: Россия
Аудиокодек: FLAC (*.flac)
Тип рипа: image+.cue
Битрейт аудио: lossless
Продолжительность: 01:18:30
Источник (релизер): maichka
Наличие сканов в содержимом раздачи: да
Треклист:
01. Человек в телогрейке
02. В таверне
03. Цветет сирень
04. Крестовая печать
05. А на черных ресницах
06. Изба
07. Багульник
08. Прощай, прощай
09. Рецидивист
10. Ах, январь мой
11. Хрустальная ваза
12. Роза на крови
13. Верба
14. Не уходи
15. Тихий океан
16. Обыкновенная
17. Пройдут года
18. Черноокая
19. До свиданья, друг
20. Боль

Лог создания рипа

Exact Audio Copy V1.0 beta 2 from 29. April 2011
Отчёт EAC об извлечении, выполненном 24. августа 2013, 11:17
Иван Кучин / Super Hits Collection
Дисковод: Optiarc DVD RW AD-5280S   Adapter: 2  ID: 1
Режим чтения                 : Достоверность
Использование точного потока : Да
Отключение кэша аудио        : Да
Использование указателей C2  : Нет
Коррекция смещения при чтении                     : 48
Способность читать области Lead-in и Lead-out     : Нет
Заполнение пропущенных сэмплов тишиной            : Да
Удаление блоков с тишиной в начале и конце        : Нет
При вычислениях CRC использовались нулевые сэмплы : Да
Интерфейс                                         : Встроенный Win32-интерфейс для Win NT/2000
Выходной формат          : Пользовательский кодировщик
Выбранный битрейт        : 768 kBit/s
Качество                 : Высокий
Добавление ID3-тега      : Нет
Утилита сжатия           : C:\Documents and Settings\Admin\Рабочий стол\Exact Audio Copy\Flac\flac.exe
Дополнительные параметры : -V -8 -T "Date=%year%" -T "Genre=%genre%" %source%
TOC извлечённого CD
     Трек |   Старт  | Длительность | Начальный сектор | Конечный сектор
    ---------------------------------------------------------------------
       1  |  0:00.00 |    5:20.02   |           0      |      24001
       2  |  5:20.02 |    4:21.62   |       24002      |      43638
       3  |  9:41.64 |    4:12.52   |       43639      |      62590
       4  | 13:54.41 |    4:14.23   |       62591      |      81663
       5  | 18:08.64 |    3:25.13   |       81664      |      97051
       6  | 21:34.02 |    4:09.38   |       97052      |     115764
       7  | 25:43.40 |    3:46.38   |      115765      |     132752
       8  | 29:30.03 |    4:29.00   |      132753      |     152927
       9  | 33:59.03 |    3:35.04   |      152928      |     169056
      10  | 37:34.07 |    2:24.17   |      169057      |     179873
      11  | 39:58.24 |    5:38.55   |      179874      |     205278
      12  | 45:37.04 |    3:19.17   |      205279      |     220220
      13  | 48:56.21 |    3:37.47   |      220221      |     236542
      14  | 52:33.68 |    3:32.43   |      236543      |     252485
      15  | 56:06.36 |    3:14.61   |      252486      |     267096
      16  | 59:21.22 |    3:45.10   |      267097      |     283981
      17  | 63:06.32 |    3:42.35   |      283982      |     300666
      18  | 66:48.67 |    3:10.04   |      300667      |     314920
      19  | 69:58.71 |    4:06.20   |      314921      |     333390
      20  | 74:05.16 |    4:24.68   |      333391      |     353258
Характеристики диапазона извлечения и сообщения об ошибках
Выбранный диапазон
     Имя файла G:\Иван Кучин - Super Hits Collection.wav
     Пиковый уровень 96.6 %
     Скорость извлечения 4.5 X
     Качество диапазона 100.0 %
     CRC теста FC62C85F
     CRC копии FC62C85F
     Копирование... OK
Ошибок не произошло
AccurateRip: сводка
Трек  1  отсутствует в базе данных
Трек  2  отсутствует в базе данных
Трек  3  отсутствует в базе данных
Трек  4  отсутствует в базе данных
Трек  5  отсутствует в базе данных
Трек  6  отсутствует в базе данных
Трек  7  отсутствует в базе данных
Трек  8  отсутствует в базе данных
Трек  9  отсутствует в базе данных
Трек 10  отсутствует в базе данных
Трек 11  отсутствует в базе данных
Трек 12  отсутствует в базе данных
Трек 13  отсутствует в базе данных
Трек 14  отсутствует в базе данных
Трек 15  отсутствует в базе данных
Трек 16  отсутствует в базе данных
Трек 17  отсутствует в базе данных
Трек 18  отсутствует в базе данных
Трек 19  отсутствует в базе данных
Трек 20  отсутствует в базе данных
Ни одного трека нет в базе AccurateRip
Конец отчёта

Содержание индексной карты (.CUE)

REM DATE 2013
REM DISCID 19126614
REM COMMENT "ExactAudioCopy v1.0b2"
PERFORMER "Иван Кучин"
TITLE "Super Hits Collection"
FILE "Иван Кучин - Super Hits Collection.flac" WAVE
  TRACK 01 AUDIO
    TITLE "Человек в телогрейке"
    PERFORMER "Иван Кучин"
    INDEX 01 00:00:00
  TRACK 02 AUDIO
    TITLE "В таверне"
    PERFORMER "Иван Кучин"
    INDEX 00 05:19:07
    INDEX 01 05:20:02
  TRACK 03 AUDIO
    TITLE "Цветет сирень"
    PERFORMER "Иван Кучин"
    INDEX 00 09:40:69
    INDEX 01 09:41:64
  TRACK 04 AUDIO
    TITLE "Крестовая печать"
    PERFORMER "Иван Кучин"
    INDEX 00 13:53:46
    INDEX 01 13:54:41
  TRACK 05 AUDIO
    TITLE "А на черных ресницах"
    PERFORMER "Иван Кучин"
    INDEX 00 18:07:69
    INDEX 01 18:08:64
  TRACK 06 AUDIO
    TITLE "Изба"
    PERFORMER "Иван Кучин"
    INDEX 00 21:33:07
    INDEX 01 21:34:02
  TRACK 07 AUDIO
    TITLE "Багульник"
    PERFORMER "Иван Кучин"
    INDEX 00 25:42:45
    INDEX 01 25:43:40
  TRACK 08 AUDIO
    TITLE "Прощай, прощай"
    PERFORMER "Иван Кучин"
    INDEX 00 29:29:08
    INDEX 01 29:30:03
  TRACK 09 AUDIO
    TITLE "Рецидивист"
    PERFORMER "Иван Кучин"
    INDEX 00 33:58:08
    INDEX 01 33:59:03
  TRACK 10 AUDIO
    TITLE "Ах, январь мой"
    PERFORMER "Иван Кучин"
    INDEX 00 37:33:12
    INDEX 01 37:34:07
  TRACK 11 AUDIO
    TITLE "Хрустальная ваза"
    PERFORMER "Иван Кучин"
    INDEX 00 39:57:29
    INDEX 01 39:58:24
  TRACK 12 AUDIO
    TITLE "Роза на крови"
    PERFORMER "Иван Кучин"
    INDEX 00 45:36:09
    INDEX 01 45:37:04
  TRACK 13 AUDIO
    TITLE "Верба"
    PERFORMER "Иван Кучин"
    INDEX 00 48:55:26
    INDEX 01 48:56:21
  TRACK 14 AUDIO
    TITLE "Не уходи"
    PERFORMER "Иван Кучин"
    INDEX 00 52:32:73
    INDEX 01 52:33:68
  TRACK 15 AUDIO
    TITLE "Тихий океан"
    PERFORMER "Иван Кучин"
    INDEX 00 56:05:41
    INDEX 01 56:06:36
  TRACK 16 AUDIO
    TITLE "Обыкновенная"
    PERFORMER "Иван Кучин"
    INDEX 00 59:20:27
    INDEX 01 59:21:22
  TRACK 17 AUDIO
    TITLE "Пройдут года"
    PERFORMER "Иван Кучин"
    INDEX 00 63:05:37
    INDEX 01 63:06:32
  TRACK 18 AUDIO
    TITLE "Черноокая"
    PERFORMER "Иван Кучин"
    INDEX 00 66:47:72
    INDEX 01 66:48:67
  TRACK 19 AUDIO
    TITLE "До свиданья, друг"
    PERFORMER "Иван Кучин"
    INDEX 00 69:58:01
    INDEX 01 69:58:71
  TRACK 20 AUDIO
    TITLE "Боль"
    PERFORMER "Иван Кучин"
    INDEX 00 74:04:21
    INDEX 01 74:05:16

Скриншот спектра частот

[Профиль] [ЛС]

Создавать темы 13-Авг-2015 11:04 (спустя 30 дней)

Топик был перенесен из форума Шансон и авторская песня в форум Сhanson
sergej644
 
Кто просматривает тему:

Показать сообщения:    

Текущее время: Сегодня 08:57

Часовой пояс: GMT



Вы не можете начинать темы
Вы не можете отвечать на сообщения
Вы не можете редактировать свои сообщения
Вы не можете удалять свои сообщения
Вы не можете голосовать в опросах
Вы не можете прикреплять файлы к сообщениям
Вы не можете скачивать файлы