Иван Васильевич меняет профессию (1973) BDRip 1080p Rip by Neofilm

 
Автор Сообщение

sergej644 ®

Пол:

Стаж: 4 года 11 месяцев

Сообщений: 6040

Откуда: Soviet Union



Награды: Нет

Торрент-статистика

Создавать темы 27-Янв-2015 04:10

[Цитировать]

Информация о фильме
Название: Иван Васильевич меняет профессию
Год выхода: 1973
Жанр: фантастика, комедия, приключения, семейный
Режиссер: Леонид Гайдай
В ролях: Александр Демьяненко, Юрий Яковлев, Леонид Куравлёв, Наталья Крачковская, Савелий Крамаров, Наталья Селезнёва, Владимир Этуш, Михаил Пуговкин, Сергей Филиппов, Наталья Кустинская
О фильме:
Инженер-изобретатель Тимофеев сконструировал машину времени, которая соединила его квартиру с далеким шестнадцатым веком - точнее, с палатами государя Ивана Грозного. Туда-то и попадают тезка царя пенсионер-общественник Иван Васильевич Бунша и квартирный вор Жорж Милославский.
На их место в двадцатом веке «переселяется» великий государь. Поломка машины приводит ко множеству неожиданных и забавных событий...

Страна: СССР
Продолжительность: 01:31:38
Перевод: Оригинал
Файл
Кодек: x.264
Качество: BDRip 1080p
Видео: 6400 kb/s, 1472x1080, 23.976 fps
Звук: AC3, 384 kb/s (6Ch)
Субтитры: нет
Сохранены оригинальные чаптеры Blu-Ray

Скриншоты

Mediainfo

General
Format : Matroska
File size : 4.36 GiB
Duration : 1h 31mn
Overall bit rate : 6 813 Kbps
Movie name : Иван Васильевич меняет профессию (1973) BDRip 1080p-Rip by Neofilm for Neoclub.net
Encoded date : UTC 2011-03-13 05:33:54
Writing application : mkvmerge v4.1.1 ('Bouncin' Back') сборка от Jul 3 2010 22:54:08
Writing library : libebml v1.0.0 + libmatroska v1.0.0
Video
ID : 1
Format : AVC
Format/Info : Advanced Video Codec
Format profile : High@L4.1
Format settings, CABAC : Yes
Format settings, ReFrames : 4 frames
Muxing mode : Container profile=Unknown@4.1
Codec ID : V_MPEG4/ISO/AVC
Duration : 1h 31mn
Bit rate : 6 400 Kbps
Width : 1 472 pixels
Height : 1 080 pixels
Display aspect ratio : 4:3
Frame rate : 23.976 fps
Color space : YUV
Chroma subsampling : 4:2:0
Bit depth : 8 bits
Scan type : Progressive
Bits/(Pixel*Frame) : 0.168
Stream size : 4.03 GiB (92%)
Title : Иван Васильевич меняет профессию (1973)
Writing library : x264 core 112 r1867 22bfd31
Encoding settings : cabac=1 / ref=4 / deblock=1:-3:-3 / analyse=0x3:0x113 / me=umh / subme=9 / psy=1 / psy_rd=1.05:0.05 / mixed_ref=1 / me_range=32 / chroma_me=1 / trellis=2 / 8x8dct=1 / cqm=0 / deadzone=21,11 / fast_pskip=0 / chroma_qp_offset=-3 / threads=6 / sliced_threads=0 / nr=0 / decimate=0 / interlaced=0 / constrained_intra=0 / bframes=2 / b_pyramid=2 / b_adapt=2 / b_bias=0 / direct=3 / weightb=1 / open_gop=0 / weightp=2 / keyint=250 / keyint_min=23 / scenecut=40 / intra_refresh=0 / rc_lookahead=40 / rc=abr / mbtree=1 / bitrate=6400 / ratetol=1.5 / qcomp=0.60 / qpmin=10 / qpmax=51 / qpstep=4 / vbv_maxrate=40000 / vbv_bufsize=40000 / nal_hrd=none / ip_ratio=1.40 / aq=1:1.00
Language : Russian
Audio
ID : 2
Format : AC-3
Format/Info : Audio Coding 3
Mode extension : CM (complete main)
Codec ID : A_AC3
Duration : 1h 31mn
Bit rate mode : Constant
Bit rate : 384 Kbps
Channel(s) : 6 channels
Channel positions : Front: L C R, Side: L R, LFE
Sampling rate : 48.0 KHz
Bit depth : 16 bits
Stream size : 252 MiB (6%)
Title : Оригинал
Language : Russian
Menu
00:00:00.000 : en:Chapter 00
00:08:01.689 : en:Chapter 01
00:12:06.684 : en:Chapter 02
00:17:05.566 : en:Chapter 03
00:22:05.699 : en:Chapter 04
00:27:41.660 : en:Chapter 05
00:31:35.810 : en:Chapter 06
00:37:12.313 : en:Chapter 07
00:46:36.126 : en:Chapter 08
00:49:43.063 : en:Chapter 09
00:59:18.638 : en:Chapter 10
01:06:17.098 : en:Chapter 11
01:09:48.225 : en:Chapter 12
01:18:32.624 : en:Chapter 13
01:23:40.015 : en:Chapter 14
01:28:22.672 : en:Chapter 15
[Профиль] [ЛС]
Кто просматривает тему:

Показать сообщения:    

Текущее время: Сегодня 20:41

Часовой пояс: GMT



Вы не можете начинать темы
Вы не можете отвечать на сообщения
Вы не можете редактировать свои сообщения
Вы не можете удалять свои сообщения
Вы не можете голосовать в опросах
Вы не можете прикреплять файлы к сообщениям
Вы не можете скачивать файлы