Иван Васильевич меняет профессию (1973) BDRip [576p] iPad

 
Автор Сообщение

sergej644 ®

Пол:

Стаж: 4 года 11 месяцев

Сообщений: 6037

Откуда: Soviet Union



Награды: Нет

Торрент-статистика

Создавать темы 24-Авг-2014 22:49

[Цитировать]

-Иван Васильевич меняет профессию (1973) BDRip [576p] iPad- Название: Иван Васильевич меняет профессию
Год: 1973
Страна: СССР
Жанр: фантастика, комедия, приключения, семейный
Продолжительность: 01:31:39
Аудиодорожка: русская
Субтитры: нет
Навигация по главам: есть
Режиссёр: Леонид Гайдай
Сценарий: Владлен Бахнов, Леонид Гайдай, Михаил Булгаков
В ролях: Александр Демьяненко, Юрий Яковлев, Леонид Куравлёв, Наталья Крачковская, Савелий Крамаров, Наталья Селезнёва, Владимир Этуш, Михаил Пуговкин, Сергей Филиппов, Наталья Кустинская
Описание: Инженер-изобретатель Тимофеев сконструировал машину времени, которая соединила его квартиру с далеким шестнадцатым веком — точнее, с палатами государя Ивана Грозного. Туда-то и попадают тезка царя пенсионер-общественник Иван Васильевич Бунша и квартирный вор Жорж Милославский.
На их место в двадцатом веке «переселяется» великий государь. Поломка машины приводит ко множеству неожиданных и забавных событий…

Качество видео: BDRip
Исходник: Blu-ray disc
Формат: MP4 (контейнер m4v)
Видео: AVC, 768x576 (4:3) at 23.976 fps, AVC at 4189 kbps avg, 0.395 bit/pixel
Аудио: 48 kHz, AAC, 2ch, 128 Kbps | Russian | Original

MediaInfo:

Общее
Полное имя : F:\Downloads\Ivan Vasilevich menyaet professiyu.1973.BDRip.iPad.m4v
Формат : MPEG-4
Профиль формата : Base Media / Version 2
Идентификатор кодека : mp42
Размер файла : 2,77 Гбайт
Продолжительность : 1 ч. 31 м.
Режим общего битрейта : Переменный
Общий поток : 4328 Кбит/сек
Название фильма : Иван Васильевич меняет профессию
Исполнитель : Леонид Гайдай
Жанр : фантастика, комедия, приключения, семейный
Дата записи : UTC 1973-09-21 07:00:00
Дата кодирования : UTC 2013-05-03 13:22:14
Дата пометки : UTC 2013-05-06 11:50:51
Программа кодирования : HandBrake 0.9.8 2012071700
Видео
Идентификатор : 1
Формат : AVC
Формат/Информация : Advanced Video Codec
Профиль формата : [url=mailto:High@L3.1]High@L3.1[/url]
Параметр CABAC формата : Да
Параметр ReFrames формата : 8 кадров
Идентификатор кодека : avc1
Идентификатор кодека/Информация : Advanced Video Coding
Продолжительность : 1 ч. 31 м.
Вид битрейта : Переменный
Битрейт : 4189 Кбит/сек
Ширина : 768 пикселей
Высота : 576 пикселей
Соотношение сторон : 4:3
Режим частоты кадров : Переменный
Частота кадров : 23,976 кадра/сек
Минимальная частота кадров : 23,974 кадра/сек
Максимальная частота кадров : 23,981 кадра/сек
Цветовое пространство : YUV
Субдискретизация насыщенности : 4:2:0
Битовая глубина : 8 бит
Тип развёртки : Прогрессивная
Бит/(Пиксели*Кадры) : 0.395
Размер потока : 2,68 Гбайт (97%)
Библиотека кодирования : x264 core 120
Настройки программы : cabac=1 / ref=9 / deblock=1:-1:-1 / analyse=0x3:0x133 / me=umh / subme=9 / psy=1 / psy_rd=1.00:0.15 / mixed_ref=1 / me_range=32 / chroma_me=1 / trellis=2 / 8x8dct=1 / cqm=0 / deadzone=21,11 / fast_pskip=1 / chroma_qp_offset=-3 / threads=6 / sliced_threads=0 / nr=0 / decimate=1 / interlaced=0 / bluray_compat=0 / constrained_intra=0 / bframes=9 / b_pyramid=1 / b_adapt=2 / b_bias=0 / direct=1 / weightb=1 / open_gop=0 / weightp=2 / keyint=240 / keyint_min=24 / scenecut=40 / intra_refresh=0 / rc_lookahead=40 / rc=crf / mbtree=1 / crf=18.0 / qcomp=0.60 / qpmin=3 / qpmax=69 / qpstep=4 / ip_ratio=1.40 / aq=1:0.90
Дата кодирования : UTC 2013-05-03 13:22:14
Дата пометки : UTC 2013-05-03 16:44:44
Основные цвета : BT.709
Характеристики трансфера : BT.709
Коэффициенты матрицы : BT.709
Аудио
Идентификатор : 2
Формат : AAC
Формат/Информация : Advanced Audio Codec
Профиль формата : LC
Идентификатор кодека : 40
Продолжительность : 1 ч. 31 м.
Вид битрейта : Переменный
Битрейт : 128 Кбит/сек
Максимальный битрейт : 212 Кбит/сек
Каналы : 2 канала
Расположение каналов : Front: L R
Частота : 48,0 КГц
Метод сжатия : С потерями
Задержка видео : 83 мс.
Размер потока : 83,9 Мбайт (3%)
Язык : Russian
Дата кодирования : UTC 2013-05-03 13:22:14
Дата пометки : UTC 2013-05-03 16:44:43
Текст
Идентификатор : 5
Формат : Apple text
Идентификатор кодека : text
Продолжительность : 1 ч. 31 м.
Вид битрейта : Переменный
Битрейт : 1 бит/сек
Задержка видео : 83 мс.
Размер потока : 375 байт (0%)
Дата кодирования : UTC 2013-05-06 11:50:51
Дата пометки : UTC 2013-05-06 11:50:51

x264 Log:

x264 [info]: frame I:965 Avg QP:15.70 size:117788
x264 [info]: frame P:27897 Avg QP:19.16 size: 49936
x264 [info]: frame B:102973 Avg QP:22.22 size: 13328
x264 [info]: consecutive B-frames: 1.7% 1.5% 6.4% 21.4% 15.2% 51.4% 1.9% 0.3% 0.2% 0.1%
x264 [info]: mb I I16..4: 23.5% 43.2% 33.3%
x264 [info]: mb P I16..4: 1.9% 14.7% 3.1% P16..4: 27.7% 23.8% 18.0% 5.0% 2.1% skip: 3.8%
x264 [info]: mb B I16..4: 0.1% 2.6% 0.2% B16..8: 37.3% 10.9% 4.6% direct:10.0% skip:34.1% L0:37.5% L1:42.6% BI:19.9%
x264 [info]: 8x8 transform intra:75.6% inter:46.4%
x264 [info]: coded y,uvDC,uvAC intra: 97.6% 74.7% 43.1% inter: 39.7% 28.2% 3.5%
x264 [info]: i16 v,h,dc,p: 15% 3% 39% 43%
x264 [info]: i8 v,h,dc,ddl,ddr,vr,hd,vl,hu: 11% 7% 12% 9% 13% 13% 12% 12% 12%
x264 [info]: i4 v,h,dc,ddl,ddr,vr,hd,vl,hu: 10% 7% 6% 10% 14% 15% 13% 12% 13%
x264 [info]: i8c dc,h,v,p: 44% 22% 21% 13%
x264 [info]: Weighted P-Frames: Y:13.7% UV:5.1%
x264 [info]: ref P L0: 50.3% 17.2% 13.0% 6.5% 4.5% 3.4% 2.8% 1.9% 0.3% 0.0%
x264 [info]: ref B L0: 90.0% 4.7% 2.3% 1.1% 0.8% 0.6% 0.4%
x264 [info]: ref B L1: 97.5% 2.5%
x264 [info]: kb/s:4188.89
Скриншоты: Рип сделан по заказу - Loki454
Время раздачи: 24/7
[Профиль] [ЛС]
Кто просматривает тему:

Показать сообщения:    

Текущее время: Сегодня 15:59

Часовой пояс: GMT



Вы не можете начинать темы
Вы не можете отвечать на сообщения
Вы не можете редактировать свои сообщения
Вы не можете удалять свои сообщения
Вы не можете голосовать в опросах
Вы не можете прикреплять файлы к сообщениям
Вы не можете скачивать файлы