Зoлoтaя лихoрaдкa. Берингoвo море 3 сезон / Bering Sea Gold (Season 03 Episode 01-10 (11)) [2013, Реалити Шоу, SATRip]

 
Автор Сообщение

reversefile ®

Пол:

Стаж: 4 года 5 месяцев

Сообщений: 842

Откуда: ReverseFile.org



Награды: Нет

Торрент-статистика

Создавать темы 24-Июл-2014 17:55

[Цитировать]

Золотая лихорадка. Берингово море 3 сезон / Bering Sea Gold (Season 03 Episode 01-10 (11))
Дата/Год выпуска: 2013
Страна: США
Жанр: Реалити Шоу
Продолжительность: ~44:00
Перевод: Любительский (многоголосый закадровый)
Телеканал: Discovery Channel
Описание: Ном, Аляска. Каждое лето, когда вокруг этого далекого порта начинает таять лед, сюда стекаются искатели приключений, чтобы заняться поисками золота в самом невероятном месте - на дне Берингова моря.
Сэмпл: http://yadi.sk/d/kQDC-AsuKuKvs
качество: SATRip
формат: AVI
Видео: XviD, 704x400 (16:9), 1911 Kbps, 25.000 fps
Аудио: MP3, 44.1 KHz, 2 ch, 128 Kbps

Список выпусков/серий

01. "Fire and Icebergs"
02. "Off the Deep End"
03. "Gold_Burn It Down"
04. "Let the Games Begin"
05. "Who's the Captain"
06. "10 Lbs. of Gold"
07. "Backhoe Wars"
08. "Money Money Money"
09. "Mr. Gold & the New Kid"
10. "The Rescue and the Repo"

MediaInfo

GeneralComplete name : E:\За граню\Золотая Лихорадка Берингово море 3 сезон\S03E01 Bering Sea Gold_Fire and Icebergs.aviFormat : AVIFormat/Info : Audio Video InterleaveFile size : 676 MiBDuration : 43mn 49sOverall bit rate : 2 157 Kbps
VideoID : 0Format : MPEG-4 VisualFormat profile : Advanced Simple@L5Format settings, BVOP : 2Format settings, QPel : NoFormat settings, GMC : No warppointsFormat settings, Matrix : Default (H.263)Muxing mode : Packed bitstreamCodec ID : XVIDCodec ID/Hint : XviDDuration : 43mn 49sBit rate : 2 022 KbpsWidth : 704 pixelsHeight : 400 pixelsDisplay aspect ratio : 16:9Frame rate : 25.000 fpsColor space : YUVChroma subsampling : 4:2:0Bit depth : 8 bitsScan type : ProgressiveCompression mode : LossyBits/(Pixel*Frame) : 0.287Stream size : 634 MiB (94%)Writing library : XviD 64
AudioID : 1Format : MPEG AudioFormat version : Version 1Format profile : Layer 3Mode : Joint stereoMode extension : MS StereoCodec ID : 55Codec ID/Hint : MP3Duration : 43mn 49sBit rate mode : ConstantBit rate : 128 KbpsChannel(s) : 2 channelsSampling rate : 44.1 KHzCompression mode : LossyStream size : 40.1 MiB (6%)Alignment : Split accross interleavesInterleave, duration : 1000 ms (25.00 video frames)Writing library : LAME3.96.1

Скриншоты

[Профиль] [ЛС]
Кто просматривает тему:

Показать сообщения:    

Текущее время: Сегодня 14:48

Часовой пояс: GMT



Вы не можете начинать темы
Вы не можете отвечать на сообщения
Вы не можете редактировать свои сообщения
Вы не можете удалять свои сообщения
Вы не можете голосовать в опросах
Вы не можете прикреплять файлы к сообщениям
Вы не можете скачивать файлы