Зося (Михаил Богин) [1967, мелодрама, военный, DVB]

 
Автор Сообщение

reversefile ®

Пол:

Стаж: 4 года 5 месяцев

Сообщений: 842

Откуда: ReverseFile.org



Награды: Нет

Торрент-статистика

Создавать темы 25-Июл-2014 01:16

[Цитировать]

Зося Жанр: мелодрама, военный
Страна: СССР, Польша
Год выпуска: 1967
Продолжительность: 01:03:35
Режиссёр: Михаил Богин
В ролях: Юрий Каморный, Пола Ракса, Николай Мерзликин, Зигмунт Зинтель, Барбара Баргеловская,
Веслава Мазуркевич, Георгий Бурков,Александр Граве,Николай Хангажиев,Любовь Корнева
Описание: На войне слова любви тонут в грохоте орудий. Но самый кровавый бой рано или поздно заканчивается. Во время короткой передышки можно сменить автомат на томик Есенина и помечтать о прекрасной польской девушке из освобожденной деревни. Когда молчат пушки — говорят музы.
История любви советского офицера и польской девушки в последние дни войны. Батальон, где служат Михаил и Виктор, располагается на отдых в польской деревне. Друзья знакомятся с дочерью квартирной хозяйки. Михаил с первого взгляда влюбляется в Зосю, однако ему кажется, что ей нравится Виктор. И только когда батальон покидает деревню, Михаил понимает, что девушка любит именно его.

Доп. информация: Запись со спутника НТВ+

Семпл: http://multi-up.com/986953
Качество видео: DVB
Формат видео: TS
Видео: MPEG Video 2, 720x576 (4:3), 25.00fps, 2473 Кбит/сек
Аудио: русский, MP2, 48000Hz, 192 kbps, 2 ch

MediaInfo

Видео
Идентификатор : 324 (0x144)
Идентификатор меню : 1 (0x1)
Формат : MPEG Video
Версия формата : Version 2
Профиль формата : Main@Main
Параметр BVOP формата : Да
Параметр матрицы формата : Выборочная
Параметр GOP формата : Variable
Идентификатор кодека : 2
Продолжительность : 1 ч. 3 м.
Вид битрейта : Переменный
Битрейт : 2473 Кбит/сек
Максимальный битрейт : 15,0 Мбит/сек
Ширина : 720 пикселей
Высота : 576 пикселей
Соотношение сторон : 4:3
Частота кадров : 25,000 кадров/сек
Стандарт вещания : PAL
Цветовое пространство : YUV
Субдискретизация насыщенности : 4:2:0
Битовая глубина : 8 бит
Тип развёртки : Чересстрочная
Порядок развёртки : Верхнее поле первое
Метод сжатия : С потерями
Бит/(Пиксели*Кадры) : 0.239
Временной код первого кадра : 00:00:00:00
Оригинал временного кода : Group of pictures header
Размер потока : 1,10 Гбайт (88%)
Аудио
Идентификатор : 408 (0x198)
Идентификатор меню : 1 (0x1)
Формат : MPEG Audio
Версия формата : Version 1
Профиль формата : Layer 2
Идентификатор кодека : 3
Продолжительность : 1 ч. 3 м.
Вид битрейта : Постоянный
Битрейт : 192 Кбит/сек
Каналы : 2 канала
Частота : 48,0 КГц
Метод сжатия : С потерями
Задержка видео : 13 мс.
Размер потока : 87,3 Мбайт (7%)
Язык : Russian

Скриншоты

[Профиль] [ЛС]

Создавать темы 06-Авг-2015 22:06 (спустя 1 год)

Топик был перенесен из форума Кино СССР в форум Кино СССР
sergej644
 
Кто просматривает тему:

Показать сообщения:    

Текущее время: Сегодня 00:46

Часовой пояс: GMT



Вы не можете начинать темы
Вы не можете отвечать на сообщения
Вы не можете редактировать свои сообщения
Вы не можете удалять свои сообщения
Вы не можете голосовать в опросах
Вы не можете прикреплять файлы к сообщениям
Вы не можете скачивать файлы