Зона 51 / Area 51 (2015) WEB-DL 720p | Яроцкий

 
Автор Сообщение

Монах ®

Пол:

Стаж: 1 год 7 месяцев

Сообщений: 31

Откуда: Беларусь



Награды: Нет

Торрент-статистика

Создавать темы 05-Авг-2015 16:07

[Цитировать]

Информация о фильме
Название: Зона 51
Оригинальное название: Area 51
Год выхода: 2015
Жанр: ужасы, фантастика, триллер
Режиссер: Орен Пели
В ролях: Рейд Уорнер, Дэррин Брагг, Бенжамин Ровнер, Елена Ник, Рой Абрамсон, Фрэнк Новак, Гленн Кэмпбелл, Conception West, Джеймс Декер, Патрик Салливан
Трое молодых конспирологов пытаются раскрыть тайны загадочной Зоны 51, секретной правительственной базы, где, по слухам, состоялась встреча с инопланетными существами. Ребята проникают на базу, попутно все снимая на видеокамеру. Но то, что они обнаруживают, никто из них не мог представить даже в самых страшных кошмарах…

Выпущено: США / Aramid Entertainment Fund, Blumhouse Productions, IM Global, Incentive Filmed Entertainment, Room 101
Продолжительность: 01:30:53
Озвучивание: Авторское (одноголосое) [М.Яроцкий]

Формат: MKV
Качество: WEB-DL 720p
Видео: 3810 kb/s, 1280x718
Аудио: Russian / English: AC3, 384 kb/s (6 ch)
Субтитры: English

MI

Format : Matroska
Format version : Version 4 / Version 2
File size : 2.97 GiB
Duration : 1h 30mn
Overall bit rate : 4 671 Kbps
Encoded date : UTC 2015-08-05 11:24:13
Writing application : mkvmerge v6.1.0 ('Old Devil') built on Mar 4 2013 09:10:42
Writing library : libebml v1.3.0 + libmatroska v1.4.0
Video
ID : 1
Format : AVC
Format/Info : Advanced Video Codec
Format profile : High@L3.1
Format settings, CABAC : No
Format settings, ReFrames : 2 frames
Codec ID : V_MPEG4/ISO/AVC
Duration : 1h 30mn
Bit rate : 3 810 Kbps
Width : 1 280 pixels
Height : 718 pixels
Display aspect ratio : 16:9
Frame rate mode : Constant
Frame rate : 23.976 fps
Color space : YUV
Chroma subsampling : 4:2:0
Bit depth : 8 bits
Scan type : Progressive
Bits/(Pixel*Frame) : 0.173
Stream size : 2.42 GiB (82%)
Language : English
Default : Yes
Forced : No
Color range : Limited
Color primaries : BT.709
Transfer characteristics : BT.709
Matrix coefficients : BT.709
Audio #1
ID : 2
Format : AC-3
Format/Info : Audio Coding 3
Mode extension : CM (complete main)
Format settings, Endianness : Big
Codec ID : A_AC3
Duration : 1h 30mn
Bit rate mode : Constant
Bit rate : 384 Kbps
Channel(s) : 6 channels
Channel positions : Front: L C R, Side: L R, LFE
Sampling rate : 48.0 KHz
Bit depth : 16 bits
Compression mode : Lossy
Stream size : 250 MiB (8%)
Language : Russian
Default : Yes
Forced : No
Audio #2
ID : 3
Format : AC-3
Format/Info : Audio Coding 3
Mode extension : CM (complete main)
Format settings, Endianness : Big
Codec ID : A_AC3
Duration : 1h 30mn
Bit rate mode : Constant
Bit rate : 384 Kbps
Channel(s) : 6 channels
Channel positions : Front: L C R, Side: L R, LFE
Sampling rate : 48.0 KHz
Bit depth : 16 bits
Compression mode : Lossy
Stream size : 250 MiB (8%)
Language : English
Default : No
Forced : No
Text
ID : 4
Format : UTF-8
Codec ID : S_TEXT/UTF8
Codec ID/Info : UTF-8 Plain Text
Language : English
Default : No
Forced : No
Menu
00:00:00.000 : en:Chapter 1
00:08:47.000 : en:Chapter 2
00:16:48.000 : en:Chapter 3
00:24:20.000 : en:Chapter 4
00:33:01.000 : en:Chapter 5
00:40:37.000 : en:Chapter 6
00:45:18.000 : en:Chapter 7
00:54:20.000 : en:Chapter 8
01:01:55.000 : en:Chapter 9
01:10:23.000 : en:Chapter 10
01:18:04.000 : en:Chapter 11
01:26:11.000 : en:Chapter 12

Скриншоты



[Профиль] [ЛС]
Показать сообщения:    

Текущее время: Сегодня 18:49

Часовой пояс: GMT



Вы не можете начинать темы
Вы не можете отвечать на сообщения
Вы не можете редактировать свои сообщения
Вы не можете удалять свои сообщения
Вы не можете голосовать в опросах
Вы не можете прикреплять файлы к сообщениям
Вы не можете скачивать файлы