Зомби по имени Фидо / Fido (2006) BDRip 1080p

 
Автор Сообщение

sergej644 ®

Пол:

Стаж: 4 года 11 месяцев

Сообщений: 6035

Откуда: Soviet Union



Награды: Нет

Торрент-статистика

Создавать темы 31-Авг-2015 19:49

[Цитировать]

Информация о фильме
Русское название: Зомби по имени Фидо
Оригинальное название: Fido
Год выхода: 2006
Жанр: ужасы, драма, мелодрама, комедия
Режиссер: Эндрю Карри
Выпущено: Канада
Продолжительность: 01:32:30
Перевод: Профессиональный (многоголосый закадровый)
В ролях: Кэрри-Энн Мосс, Билли Коннолли, Дилан Бэйкер, Соня Беннет, Дженнифер Клемент, Роб ЛаБелль, Аарон Браун, Брэндон Олдз, Алексия Фаст, Генри Черни, Тим Блейк Нельсон, Дэвид Кэй, Жан Скоржевский, Энди Паркин, Линн Пендлтон-Сюжет фильма
Добро пожаловать в Уиллард, маленький город в идиллическом мире где-то в 50-х, где солнце светит каждый день, все знают своих соседей, а зомби разносят газеты…Годы назад Земля пролетела через облако космической пыли, заставившей мёртвых восстать с ненасытной жаждой человеческой плоти. Террор распространился по планете до тех пор, пока не был изобретён ошейник, сделавший зомби управляемыми и даже полезными. Благодаря изобретению компании ZomCon зомби стали садовниками, молочниками, прислугой, даже домашними любимцами. ZomCon старается показать, что ситуация у них под контролем. Но так ли это на самом деле? Тимми Робинсон так не думает. Он полагает, что мир введён в заблуждение. Будучи одиноким, Тимми проводит много времени в своей комнате, даже собственные родители не замечают его. Так что когда мама покупает зомби, чтобы тот делал работу по дому, это становится для него сюрпризом. Он сильно удивляется, когда нежить предлагает поиграть в мяч. А после того как зомби спасёт героя от хулиганов, рождается настоящая дружба, и Тимми называет чудовище - Фидо. Но когда ошейник Фидо выходит из строя, соседям приходится несладко. Чтобы распутать дело, известный специалист по контролю над зомби, мистер Боттомс, приезжает в город…-Файл
Качество: BDRip 1080p (исходник Blu-ray Disc Remux)
Видео: 1904x808, 11000 Кбит/сек, 29,970 кадр/сек, AVC, x264, High@L4.1, 2.35:1, 0.239 Бит/[Пиксели*Кадры]
Аудио 1: AC-3, 448 Кбит/сек, 6 канала(ов), 48,0 КГц - Многоголосый закадровый / Русский
Аудио 2: AC-3, 640 Кбит/сек, 6 канала(ов), 48,0 КГц - Оригинал / Английский
Субтитры: Русские | Полные, Английские | Полные
Форсированные субтитры: Нет
Чаптеры (Главы): Есть- Автор Рипа: -

Скриншоты:

MdiaInfo

Format : Matroska
Format version : Version 2
File size : 7.76 GiB
Duration : 1h 32mn
Overall bit rate : 12.0 Mbps
Movie name : Зомби по имени Фидо.(2006).BDRip.1080p.[envy]
Encoded date : UTC 2015-08-26 19:21:12
Writing application : mkvmerge v5.8.0 ('No Sleep / Pillow') built on Sep 2 2012 15:37:04
Writing library : libebml v1.2.3 + libmatroska v1.3.0
Video
ID : 1
Format : AVC
Format/Info : Advanced Video Codec
Format profile : High@L4.1
Format settings, CABAC : Yes
Format settings, ReFrames : 5 frames
Codec ID : V_MPEG4/ISO/AVC
Duration : 1h 32mn
Bit rate : 11.0 Mbps
Width : 1 904 pixels
Height : 808 pixels
Display aspect ratio : 2.35:1
Frame rate mode : Constant
Frame rate : 29.970 fps
Color space : YUV
Chroma subsampling : 4:2:0
Bit depth : 8 bits
Scan type : Progressive
Bits/(Pixel*Frame) : 0.239
Stream size : 6.90 GiB (89%)
Title : Зомби по имени Фидо.(2006).BDRip.1080p.[envy]
Writing library : x264 core 148 r2579 73ae2d1
Encoding settings : cabac=1 / ref=5 / deblock=1:-3:-3 / analyse=0x3:0x133 / me=umh / subme=11 / psy=1 / psy_rd=1.00:0.00 / mixed_ref=1 / me_range=32 / chroma_me=1 / trellis=2 / 8x8dct=1 / cqm=0 / deadzone=21,11 / fast_pskip=0 / chroma_qp_offset=-2 / threads=12 / lookahead_threads=2 / sliced_threads=0 / nr=0 / decimate=1 / interlaced=0 / bluray_compat=0 / constrained_intra=0 / bframes=7 / b_pyramid=2 / b_adapt=2 / b_bias=0 / direct=3 / weightb=1 / open_gop=0 / weightp=2 / keyint=240 / keyint_min=23 / scenecut=40 / intra_refresh=0 / rc=2pass / mbtree=0 / bitrate=11000 / ratetol=2.0 / qcomp=0.60 / qpmin=0 / qpmax=69 / qpstep=4 / cplxblur=20.0 / qblur=0.5 / ip_ratio=1.40 / pb_ratio=1.30 / aq=2:0.80
Language : English
Default : Yes
Forced : No
Audio #1
ID : 2
Format : AC-3
Format/Info : Audio Coding 3
Mode extension : CM (complete main)
Format settings, Endianness : Big
Codec ID : A_AC3
Duration : 1h 32mn
Bit rate mode : Constant
Bit rate : 448 Kbps
Channel(s) : 6 channels
Channel positions : Front: L C R, Side: L R, LFE
Sampling rate : 48.0 KHz
Compression mode : Lossy
Stream size : 296 MiB (4%)
Title : MVO
Language : Russian
Default : Yes
Forced : No
Audio #2
ID : 3
Format : AC-3
Format/Info : Audio Coding 3
Mode extension : CM (complete main)
Format settings, Endianness : Big
Codec ID : A_AC3
Duration : 1h 32mn
Bit rate mode : Constant
Bit rate : 640 Kbps
Channel(s) : 6 channels
Channel positions : Front: L C R, Side: L R, LFE
Sampling rate : 48.0 KHz
Compression mode : Lossy
Stream size : 423 MiB (5%)
Title : Eng
Language : English
Default : No
Forced : No
Text #1
ID : 4
Format : UTF-8
Codec ID : S_TEXT/UTF8
Codec ID/Info : UTF-8 Plain Text
Title : Rus full
Language : Russian
Default : No
Forced : No
Text #2
ID : 5
Format : UTF-8
Codec ID : S_TEXT/UTF8
Codec ID/Info : UTF-8 Plain Text
Title : Eng full
Language : English
Default : No
Forced : No
Menu
00:00:00.000 : en:Chapter 1
00:08:05.084 : en:Chapter 2
00:19:46.151 : en:Chapter 3
00:24:19.524 : en:Chapter 4
00:31:38.897 : en:Chapter 5
00:35:16.714 : en:Chapter 6
00:39:53.758 : en:Chapter 7
00:44:03.607 : en:Chapter 8
00:48:36.647 : en:Chapter 9
00:53:30.040 : en:Chapter 10
01:00:39.168 : en:Chapter 11
01:06:56.979 : en:Chapter 12
01:11:09.064 : en:Chapter 13
01:14:57.693 : en:Chapter 14
01:22:02.984 : en:Chapter 15
01:24:10.045 : en:Chapter 16
-
[Профиль] [ЛС]
Показать сообщения:    

Текущее время: Сегодня 11:56

Часовой пояс: GMT



Вы не можете начинать темы
Вы не можете отвечать на сообщения
Вы не можете редактировать свои сообщения
Вы не можете удалять свои сообщения
Вы не можете голосовать в опросах
Вы не можете прикреплять файлы к сообщениям
Вы не можете скачивать файлы