Зомби Мир / Zombieworld (Томми Вудард / Tommy Woodard, Адам О\' Брайн / Adam O\'Brien) [2015, США, ужасы, HDRip] VO (Xixidok)

 
Автор Сообщение

TorrentFilm ®

Пол:

Стаж: 2 года

Сообщений: 7741



Награды: Нет

Торрент-статистика

Создавать темы 28-Мар-2015 00:02

[Цитировать]

Зомби Мир / Zombieworld
Страна: США
Жанр: ужасы
Год выпуска: 2015
Продолжительность: 01:40:17
Перевод: Одноголосый (закадровый) [Xixidok]
Оригинальная аудиодорожка: нет
Cубтитры: нет
Режиссер: Томми Вудард / Tommy Woodard, Адам О' Брайн / Adam O'Brien
В ролях: Марк Веласко, Джеф Невман, Ноэ Бланкафорт, Зак Прайс
Описание: Там нигде не спрятаться... некуда бежать... пришел Зомби Апокалипсис и наш мир теперь принадлежит мертвым. Из Ирландии, Канады, Австралии, Европы и на территории США, приходят леденящие душу новости и рассказывают самые ужасные истории - ходячие трупы терроризируют и пожирают живых. Только несколько отчаянных людей нашли в себе мужество встать и бороться за их последний шанс на выживание. Но орды нежити продолжают поступать..

Качество: HDRip
Контейнер: AVI
Видео: 640x352 (1.82:1), 23.976 fps, XviD MPEG-4 ~837 kbps avg, 0.16 bit/pixel
Аудио: 44.100 kHz, MPEG Layer 3, 2 ch, ~192.00 kbps avg

MI

Общее
Полное имя : C:\Users\Вячеслав\Downloads\Zombieworld.2015.Xixidok.avi
Формат : AVI
Формат/Информация : Audio Video Interleave
Размер файла : 745 Мбайт
Продолжительность : 1 ч. 40 м.
Общий поток : 1039 Кбит/сек
Программа кодирования : VirtualDubMod 1.5.10.3 (build 2550/release)
Библиотека кодирования : VirtualDubMod build 2550/release
Видео
Идентификатор : 0
Формат : MPEG-4 Visual
Профиль формата : Advanced Simple@L5
Параметр BVOP формата : 2
Параметр QPel формата : Нет
Параметр GMC формата : Без точки перехода
Параметр матрицы формата : Default (H.263)
Идентификатор кодека : XVID
Идентификатор кодека/Подсказка : XviD
Продолжительность : 1 ч. 40 м.
Битрейт : 837 Кбит/сек
Ширина : 640 пикселей
Высота : 352 пикселя
Соотношение сторон : 16:9
Частота кадров : 23,976 кадра/сек
Цветовое пространство : YUV
Субдискретизация насыщенности : 4:2:0
Битовая глубина : 8 бит
Тип развёртки : Прогрессивная
Метод сжатия : С потерями
Бит/(Пиксели*Кадры) : 0.155
Размер потока : 601 Мбайт (81%)
Библиотека кодирования : XviD 64
Аудио
Идентификатор : 1
Формат : MPEG Audio
Версия формата : Version 1
Профиль формата : Layer 3
Идентификатор кодека : 55
Идентификатор кодека/Подсказка : MP3
Продолжительность : 1 ч. 40 м.
Вид битрейта : Постоянный
Битрейт : 192 Кбит/сек
Каналы : 2 канала
Частота : 44,1 КГц
Метод сжатия : С потерями
Размер потока : 138 Мбайт (18%)
Выравнивание : Разделение по промежуткам
Продолжительность промежутка : 42 мс. (1,00 видеокадр)
Время предзагрузки промежутка : 500 мс.

Скриншоты

[Профиль] [ЛС]
Показать сообщения:    

Текущее время: Сегодня 08:30

Часовой пояс: GMT



Вы не можете начинать темы
Вы не можете отвечать на сообщения
Вы не можете редактировать свои сообщения
Вы не можете удалять свои сообщения
Вы не можете голосовать в опросах
Вы не можете прикреплять файлы к сообщениям
Вы не можете скачивать файлы