Золушка / Cinderella (1950) BDRip [720p]

 
Автор Сообщение

sergej644 ®

Пол:

Стаж: 4 года 11 месяцев

Сообщений: 6042

Откуда: Soviet Union



Награды: Нет

Торрент-статистика

Создавать темы 13-Янв-2015 23:14

[Цитировать]

-Золушка / Cinderella (1950) BDRip [720p]
« The greatest love story ever told »
- Производство: США | Walt Disney Productions
Жанр: Мультфильм, Мюзикл, Фэнтези, Мелодрама, Семейный
Режиссер: Клайд Джероними, Уилфред Джексон, Хэмильтон Ласки
Продюсер: Уолт Дисней
Актеры: Илен Вудс, Элеонор Одли, Верна Фелтон, Рода Уильямс, Джеймс МакДональд, Луис Ван Рутен, Дон Барклай, Люсиль Блисс, Мэрион Дарлингтон, Майк Дуглас, Джун Форэй
Описание фильма: Золушка - бедная сиротка, которую злая мачеха и ее вздорные дочки заставляют тяжко работать с утра до ночи. Она так хочет попасть на королевский бал. На помощь бедняжке приходит Добрая фея! Силой волшебства она наделяет Золушку роскошной каретой, чудесным платьем и необыкновенными хрустальными башмачками.

Возраст: 0+ Для любой зрительской аудитории
Рейтинг MPAA: G Нет возрастных ограничений
Продолжительность: 01:14:29
Качество видео: BDRip [720p]
Перевод: Профессиональный дублированный, профессиональный многоголосый, авторский
Вид субтитров: Вшитые отключаемые
Язык субтитров: Русский, английский
Видео: MPEG-4 AVC/H.264, 5000 Kbps, 968 x 720
Аудио 1: Русский AC3 5.1, 640 Kbps, 48.0 KHz (Полное дублирование) Blu-ray CEE
Аудио 2: Русский AC3 5.1, 448 Kbps, 48.0 KHz (Многоголосый закадровый) DVD-Магия
Аудио 3: Русский AC3 5.1, 448 Kbps, 48.0 KHz (Многоголосый закадровый) Superbit
Аудио 4: Русский AC3 5.1, 448 Kbps, 48.0 KHz (Одноголосый закадровый) А. Михалёв
Аудио 5: Русский AC3 2.0, 192 Kbps, 48.0 KHz (Одноголосый закадровый) А. Гаврилов
Аудио 6: Русский AC3 2.0, 192 Kbps, 48.0 KHz (Одноголосый закадровый) Ю. Живов
Аудио 7: Английский DTS 5.1, 1509 Kbps, 48.0 KHz (Оригинал)

Blu-ray

MediaInfo

Общее
Полное имя : Золушка.mkv
Формат : Matroska
Версия формата : Version 1
Размер файла : 4,62 Гбайт
Продолжительность : 1 ч. 14 м.
Общий поток : 8885 Кбит/сек
Дата кодирования : UTC 2015-01-07 16:27:35
Программа кодирования : mkvmerge v2.4.1 ('Use Me') built on Dec 5 2008 18:30:05
Библиотека кодирования : libebml v0.7.7 + libmatroska v0.8.1
Видео
Идентификатор : 1
Формат : AVC
Формат/Информация : Advanced Video Codec
Профиль формата : [url=mailto:High@L4.1]High@L4.1[/url]
Параметр CABAC формата : Да
Параметр ReFrames формата : 10 кадров
Идентификатор кодека : V_MPEG4/ISO/AVC
Продолжительность : 1 ч. 14 м.
Битрейт : 5000 Кбит/сек
Ширина : 968 пикселей
Высота : 720 пикселей
Соотношение сторон : 4:3
Режим частоты кадров : Постоянный
Частота кадров : 23,976 кадра/сек
Цветовое пространство : YUV
Субдискретизация насыщенности : 4:2:0
Битовая глубина : 8 бит
Тип развёртки : Прогрессивная
Бит/(Пиксели*Кадры) : 0.299
Размер потока : 2,51 Гбайт (54%)
Заголовок : Золушка (1950)
Библиотека кодирования : x264 core 142 r2431 ac76440
Настройки программы : cabac=1 / ref=10 / deblock=1:-3:-3 / analyse=0x3:0x133 / me=umh / subme=10 / psy=1 / psy_rd=1.00:0.10 / mixed_ref=1 / me_range=48 / chroma_me=1 / trellis=2 / 8x8dct=1 / cqm=0 / deadzone=21,11 / fast_pskip=0 / chroma_qp_offset=-3 / threads=6 / lookahead_threads=1 / sliced_threads=0 / nr=0 / decimate=1 / interlaced=0 / bluray_compat=0 / constrained_intra=0 / bframes=5 / b_pyramid=2 / b_adapt=2 / b_bias=0 / direct=3 / weightb=1 / open_gop=0 / weightp=2 / keyint=240 / keyint_min=22 / scenecut=40 / intra_refresh=0 / rc_lookahead=40 / rc=2pass / mbtree=1 / bitrate=5000 / ratetol=1.0 / qcomp=0.60 / qpmin=10 / qpmax=51 / qpstep=4 / cplxblur=20.0 / qblur=0.5 / ip_ratio=1.40 / aq=1:1.00
Язык : English
Аудио #1
Идентификатор : 2
Формат : AC-3
Формат/Информация : Audio Coding 3
Расширение режима : CM (complete main)
Параметр Endianness формата : Big
Идентификатор кодека : A_AC3
Продолжительность : 1 ч. 14 м.
Вид битрейта : Постоянный
Битрейт : 640 Кбит/сек
Каналы : 6 каналов
Расположение каналов : Front: L C R, Side: L R, LFE
Частота : 48,0 КГц
Битовая глубина : 16 бит
Метод сжатия : С потерями
Размер потока : 341 Мбайт (7%)
Заголовок : AC3 (Дублированный) Blu-ray CEE
Язык : Russian
Аудио #2
Идентификатор : 3
Формат : AC-3
Формат/Информация : Audio Coding 3
Расширение режима : CM (complete main)
Параметр Endianness формата : Big
Идентификатор кодека : A_AC3
Продолжительность : 1 ч. 14 м.
Вид битрейта : Постоянный
Битрейт : 448 Кбит/сек
Каналы : 6 каналов
Расположение каналов : Front: L C R, Side: L R, LFE
Частота : 48,0 КГц
Битовая глубина : 16 бит
Метод сжатия : С потерями
Размер потока : 239 Мбайт (5%)
Заголовок : AC3 (Многоголосый) DVD-Магия
Язык : Russian
Аудио #3
Идентификатор : 4
Формат : AC-3
Формат/Информация : Audio Coding 3
Расширение режима : CM (complete main)
Параметр Endianness формата : Big
Идентификатор кодека : A_AC3
Продолжительность : 1 ч. 14 м.
Вид битрейта : Постоянный
Битрейт : 448 Кбит/сек
Каналы : 6 каналов
Расположение каналов : Front: L C R, Side: L R, LFE
Частота : 48,0 КГц
Битовая глубина : 16 бит
Метод сжатия : С потерями
Размер потока : 239 Мбайт (5%)
Заголовок : AC3 (Многоголосый) Superbit
Язык : Russian
Аудио #4
Идентификатор : 5
Формат : AC-3
Формат/Информация : Audio Coding 3
Расширение режима : CM (complete main)
Параметр Endianness формата : Big
Идентификатор кодека : A_AC3
Продолжительность : 1 ч. 14 м.
Вид битрейта : Постоянный
Битрейт : 448 Кбит/сек
Каналы : 6 каналов
Расположение каналов : Front: L C R, Side: L R, LFE
Частота : 48,0 КГц
Битовая глубина : 16 бит
Метод сжатия : С потерями
Размер потока : 239 Мбайт (5%)
Заголовок : AC3 (Одноголосый) А. Михалёв
Язык : Russian
Аудио #5
Идентификатор : 6
Формат : AC-3
Формат/Информация : Audio Coding 3
Расширение режима : CM (complete main)
Параметр Endianness формата : Big
Идентификатор кодека : A_AC3
Продолжительность : 1 ч. 14 м.
Вид битрейта : Постоянный
Битрейт : 192 Кбит/сек
Каналы : 2 канала
Расположение каналов : Front: L R
Частота : 48,0 КГц
Битовая глубина : 16 бит
Метод сжатия : С потерями
Размер потока : 102 Мбайт (2%)
Заголовок : AC3 (Одноголосый) А. Гаврилов
Язык : Russian
Аудио #6
Идентификатор : 7
Формат : AC-3
Формат/Информация : Audio Coding 3
Расширение режима : CM (complete main)
Параметр Endianness формата : Big
Идентификатор кодека : A_AC3
Продолжительность : 1 ч. 14 м.
Вид битрейта : Постоянный
Битрейт : 192 Кбит/сек
Каналы : 2 канала
Расположение каналов : Front: L R
Частота : 48,0 КГц
Битовая глубина : 16 бит
Метод сжатия : С потерями
Размер потока : 102 Мбайт (2%)
Заголовок : AC3 (Одноголосый) Ю. Живов
Язык : Russian
Аудио #7
Идентификатор : 8
Формат : DTS
Формат/Информация : Digital Theater Systems
Режим : 16
Параметр Endianness формата : Big
Идентификатор кодека : A_DTS
Продолжительность : 1 ч. 14 м.
Вид битрейта : Постоянный
Битрейт : 1509 Кбит/сек
Каналы : 6 каналов
Расположение каналов : Front: L C R, Side: L R, LFE
Частота : 48,0 КГц
Битовая глубина : 24 бит
Метод сжатия : С потерями
Размер потока : 804 Мбайт (17%)
Заголовок : DTS (Оригинал)
Язык : English
Текст #1
Идентификатор : 9
Формат : UTF-8
Идентификатор кодека : S_TEXT/UTF8
Идентификатор кодека/Информация : UTF-8 Plain Text
Заголовок : Русские
Язык : Russian
Текст #2
Идентификатор : 10
Формат : UTF-8
Идентификатор кодека : S_TEXT/UTF8
Идентификатор кодека/Информация : UTF-8 Plain Text
Заголовок : Английские
Язык : English

Дополнительно

* Во время Второй Мировой войны создание полнометражных мультфильмов было приостановлено (последним был выпущен Бэмби в 1942). К концу 1940-ых, после нескольких лет создания учебных фильмов и рекламы, финансирование было возобновлено, и работники Диснея решили выбрать для экранизации историю Золушки, как возвращение к диснеевским «корням».
* Илен Вудс была выбрана из 309 претенденток на роль Золушки, после того, как демо-записи нескольких ее песен были представлены Уолту Диснею. Но она и понятие не имела, что прослушивалась на роль до тех пор, пока Дисней не связался с ней; она первоначально сделала запись вместе с несколькими друзьями, который и послали запись Диснею, не говоря ей ни слова.
* Когда Золушка поет «Sing, sweet nightengale», три воздушных пузырька формируют уши и голову Микки Мауса.
Скриншоты:
Время раздачи: С 9:00 до 21:00
[Профиль] [ЛС]
Показать сообщения:    

Текущее время: Сегодня 20:07

Часовой пояс: GMT



Вы не можете начинать темы
Вы не можете отвечать на сообщения
Вы не можете редактировать свои сообщения
Вы не можете удалять свои сообщения
Вы не можете голосовать в опросах
Вы не можете прикреплять файлы к сообщениям
Вы не можете скачивать файлы