Золушка (1947) BDRip [H.264] [Цветная версия]

 
Автор Сообщение

sergej644 ®

Пол:

Стаж: 4 года 11 месяцев

Сообщений: 6035

Откуда: Soviet Union



Награды: Нет

Торрент-статистика

Создавать темы 11-Янв-2015 00:58

[Цитировать]

-Золушка (1947) BDRip [H.264]- Год выпуска: 1947
Жанр: Мьюзикл, Фэнтези, Мелодрама, Комедия, Семейный
Производство: Киностудия «Ленфильм»
Описание фильма:
Основа сюжета — старинный сказочный мотив о трудолюбивой Золушке, злой мачехе и ленивых сестрах. Разумеется, Шварцем переработанный и оживленный до уровня комедии, в которой есть и просто юмор, и злая сатира.
До сих пор этот нежный и добрый фильм продолжает радовать и удивлять больших и маленьких. А вы попробуйте не удивиться тому, что к вам в гости приходит волшебница со своим очаровательным пажом и мановением волшебной палочки превращает ваше рубище в бальное платье, а ваши опорки в хрустальные башмачки. Попробуйте просто и естественно усесться в золоченую тыкву, запряженную мышами, и в этой карете поехать на бал к королю. Попробуйте, наконец, танцевать со сказочным королем и влюбиться в волшебного принца.
Режиссер: Надежда Кошеверова, Михаил Шапиро
Сценарий: Евгений Шварц
Актеры: Янина Жеймо, Алексей Консовский, Эраст Гарин, Фаина Раневская, Елена Юнгер, Тамара Сезеневская, Василий Меркурьев, Александр Румнев, Варвара Мясникова, Игорь Клименков
Продолжительность: 01:21:50
Качество видео: BDRip
Cубтитры: Отсутствуют

Дата мировой премьеры: 16 мая 1947
Релиз на DVD: 30 сентября 2004, «Союз-Видео»
Релиз на Blu-Ray: 20 декабря 2011, «Парадиз Медиа»
Видеокодек: MPEG-4 AVC/H.264
Битрейт видео: ~2094 Кбит/сек
Размер кадра: 768x560
Аудиокодек: AC3 5.1
Битрейт аудио: 448 Кбит/сек
Сэмпл: Скачать

Знаете ли вы, что...

Фильм снят по одноименной пьесе Евгения Шварца, написанной по одноименной сказке Шарля Перро.
Фаина Раневская во время съёмок очень похудела и, гримируясь, безжалостно обращалась со своим лицом. Подтягивала свой многострадальный нос с помощью кусочков газа и лака, запихивала за щеки комочки ваты. Когда её просили не мучить себя, раздражённо отвечала: «Для актрисы не существует никаких неудобств, если это нужно для роли».
На роль короля пробовались и Юрий Толубеев, и Константин Адашевский — и каждый был по-своему хорош, но лишь в Эрасте Гарине обнаружилась та мера эксцентрики и задушевности, которая нужна сказке.
На момент съёмок Янине Жеймо (Золушка) было 38 лет, Алексею Консовскому (Принц) — 35 лет. Игравший родного отца Золушки Василий Меркурьев всего на пять лет старше Жеймо.

Реценция с кинопоиска от ilayy:

Когда-нибудь спросят: А что вы, собственно, можете предъявить? И никакие связи не помогут сделать ножку маленькой, душу — большой и сердце — справедливым.(с)
Это то, что никогда не забудется. Первая в своем роде экранизация всем известной сказки! Волшебная и чудесная вещь, которую просто невозможно не полюбить.
Наверное, как и многие, я ознакомилась с этим материалом еще в детстве, и с того момента бесчисленное количество раз пересматривала и мысленно переживала столь замечательный сюжет.
Просмотр доставляет столько теплых и радостных эмоций, что даже сравнить данный фильм с чем-либо еще не получиться.
Наивная история со справедливым, правильным концом, учащая трудолюбию, доброте, упорству и честности. Это романтическое творение заслуживает внимания и восхищения!
Похвально, несравненно, обожаемо.
Безусловно:
10 из 10

MediaInfo:

General
Unique ID : 197053730854415164026641122178141622878 (0x943F2B07FBDE95BABF5D48FD7369925E)
Complete name : F:\Downloads\Золушка.mkv
Format : Matroska
Format version : Version 4 / Version 2
File size : 1.45 GiB
Duration : 1h 21mn
Overall bit rate : 2 544 Kbps
Encoded date : UTC 2014-12-31 10:10:30
Writing application : mkvmerge v7.0.0 ('Where We Going') 32bit built on Jun 9 2014 15:08:34
Writing library : libebml v1.3.0 + libmatroska v1.4.1
DURATION : 01:21:50.944000000
NUMBER_OF_FRAMES : 153467
NUMBER_OF_BYTES : 275012864
_STATISTICS_WRITING_APP : mkvmerge v7.0.0 ('Where We Going') 32bit built on Jun 9 2014 15:08:34
_STATISTICS_WRITING_DATE_UTC : 2014-12-31 10:10:30
_STATISTICS_TAGS : BPS DURATION NUMBER_OF_FRAMES NUMBER_OF_BYTES
Video
ID : 1
Format : AVC
Format/Info : Advanced Video Codec
Format profile : [url=mailto:High@L4.0]High@L4.0[/url]
Format settings, CABAC : Yes
Format settings, ReFrames : 8 frames
Codec ID : V_MPEG4/ISO/AVC
Duration : 1h 21mn
Bit rate : 2 094 Kbps
Width : 768 pixels
Height : 560 pixels
Display aspect ratio : 1.371
Frame rate mode : Constant
Frame rate : 23.976 fps
Color space : YUV
Chroma subsampling : 4:2:0
Bit depth : 8 bits
Scan type : Progressive
Bits/(Pixel*Frame) : 0.203
Stream size : 1.17 GiB (80%)
Title : Золушка (Цветная версия) / 1947
Writing library : x264 core 125 r2208 d9d2288
Encoding settings : cabac=1 / ref=8 / deblock=1:-1:-1 / analyse=0x3:0x133 / me=umh / subme=9 / psy=1 / psy_rd=1.00:0.10 / mixed_ref=1 / me_range=32 / chroma_me=1 / trellis=2 / 8x8dct=1 / cqm=0 / deadzone=21,11 / fast_pskip=0 / chroma_qp_offset=-3 / threads=6 / lookahead_threads=1 / sliced_threads=0 / nr=0 / decimate=1 / interlaced=0 / bluray_compat=0 / constrained_intra=0 / bframes=3 / b_pyramid=2 / b_adapt=2 / b_bias=0 / direct=3 / weightb=1 / open_gop=0 / weightp=2 / keyint=250 / keyint_min=25 / scenecut=40 / intra_refresh=0 / rc_lookahead=60 / rc=2pass / mbtree=1 / bitrate=2094 / ratetol=1.0 / qcomp=0.60 / qpmin=0 / qpmax=69 / qpstep=4 / cplxblur=20.0 / qblur=0.5 / ip_ratio=1.40 / aq=1:1.00
Language : Russian
Default : Yes
Forced : No
Audio
ID : 2
Format : AC-3
Format/Info : Audio Coding 3
Mode extension : CM (complete main)
Format settings, Endianness : Big
Codec ID : A_AC3
Duration : 1h 21mn
Bit rate mode : Constant
Bit rate : 448 Kbps
Channel(s) : 6 channels
Channel positions : Front: L C R, Side: L R, LFE
Sampling rate : 48.0 KHz
Bit depth : 16 bits
Compression mode : Lossy
Stream size : 262 MiB (18%)
Title : Русский / 448 Kbps / 6 channels / 48.0 KHz
Language : Russian
Default : Yes
Forced : No
Скриншоты:

Дополнительные скриншоты:

Время раздачи: с 14:00 до 02:00 по Москве (выходные круглосуточно), до 10 скачавших
[Профиль] [ЛС]
Показать сообщения:    

Текущее время: Сегодня 18:21

Часовой пояс: GMT



Вы не можете начинать темы
Вы не можете отвечать на сообщения
Вы не можете редактировать свои сообщения
Вы не можете удалять свои сообщения
Вы не можете голосовать в опросах
Вы не можете прикреплять файлы к сообщениям
Вы не можете скачивать файлы