Золушка (1947) BDRemux [1080p] [цветной]

 
Автор Сообщение

sergej644 ®

Пол:

Стаж: 4 года 11 месяцев

Сообщений: 6043

Откуда: Soviet Union



Награды: Нет

Торрент-статистика

Создавать темы 17-Ноя-2014 21:17

[Цитировать]

-Золушка (1947) BDRemux [1080p] [цветной]- Страна: CCCР
Год выпуска: 1947
Жанр: Сказка, Музыкальный, Семейный
Описание фильма:
Основа сюжета - старинный сказочный мотив о трудолюбивой Золушке, злой мачехе и ленивых сестрах. Разумеется, Шварцем переработанный и оживленный до уровня комедии, в которой есть и просто юмор и злая сатира.
До сих пор этот нежный и добрый фильм продолжает радовать и удивлять больших и маленьких. А вы попробуйте не удивиться тому, что к вам в гости приходит волшебница со своим очаровательным пажом и мановением волшебной палочки превращает ваше рубище в бальное платье, а ваши опорки в хрустальные башмачки. Попробуйте просто и естественно усесться в золоченую тыкву, запряженную мышами, и в этой карете поехать на бал к королю. Попробуйте, наконец, танцевать со сказочным королем и влюбиться в волшебного принца.
Режиссеры: Михаил Шапиро, Надежда Кошеверова
Актеры: Янина Жеймо, Алексей Консовский, Эраст Гарин, Фаина Раневская, Елена Юнгер, Татьяна Селезневская, Василий Меркурьев, Варвара Мясникова, Игорь Клеменков, Сергей Филиппов
Продолжительность: 01:21:50
Качество видео: BDRemux
Перевод: Не требуется
Cубтитры: нет

Видеокодек: MPEG-4 AVC/H.264
Битрейт видео: ~19.5 Mb/s (23,976 fps)
Размер кадра: 1920x1080p (16:9)
Аудиокодек: DTS 5.1
Битрейт аудио: 1509 kbps (48 kHz, 24-bit)

Доп. информация о релизе

Основной видеофайл оригинала (диск Блу-рей 29.8 Gb) остался неизменным по качеству.

MediaInfo

ZOLUSHKA.mkv
General
UniqueID : 40936990339028648928096293697562465734 (0x1ECC2D74180B1809211A444E38D1D5C6)
Complete name : ZOLUSHKA.mkv
Format : Matroska
File size : 12.3 GiB
Duration : 1h 21mn
Overall bit rate : 21.5 Mbps
Writing application : Lavf55.7.100
Writing library : Lavf55.7.100
Video #1
ID : 1
Format : AVC
Format/Info : Advanced Video Codec
Format profile : [url=mailto:High@L4.1]High@L4.1[/url]
Format settings, CABAC : Yes
Format settings, ReFrames : 4 frames
Codec ID : V_MPEG4/ISO/AVC
Duration : 1h 21mn
Bit rate mode : Variable
Bit rate : 19.5 Mbps
Maximum bit rate : 25.0 Mbps
Width : 1 920 pixels
Height : 1 080 pixels
Display aspect ratio : 16:9
Frame rate : 23.976 fps
Standard : NTSC
Color space : YUV
Chroma subsampling : 4:2:0
Bit depth : 8 bits
Scan type : Progressive
Bits/(Pixel*Frame) : 0.393
Stream size : 11.2 GiB (91%)
Title : Main video
Language : English / un
Color primaries : BT.709-5, BT.1361, IEC 61966-2-4, SMPTE RP177
Transfer characteristics : BT.709-5, BT.1361
Matrix coefficients : BT.709-5, BT.1361, IEC 61966-2-4 709, SMPTE RP177
Audio #2
ID : 2
Format : DTS
Format/Info : Digital Theater Systems
Codec ID : A_DTS
Duration : 1h 21mn
Bit rate mode : Constant
Bit rate : 1 510 Kbps
Channel(s) : 6 channels
Channel positions : Front: L C R, Side: L R, LFE
Sampling rate : 48.0 KHz
Bit depth : 24 bits
Compression mode : Lossy
Stream size : 884 MiB (7%)
Title : Russian
Language : Russian
Скриншоты:
Время раздачи: до 10 скачавших--
[Профиль] [ЛС]
Показать сообщения:    

Текущее время: Сегодня 14:43

Часовой пояс: GMT



Вы не можете начинать темы
Вы не можете отвечать на сообщения
Вы не можете редактировать свои сообщения
Вы не можете удалять свои сообщения
Вы не можете голосовать в опросах
Вы не можете прикреплять файлы к сообщениям
Вы не можете скачивать файлы