Золушка (Михаил Шапиро, Надежда Кошеверова) [1947, СССР, сказка, семейный, BDRip 1080p] [Цветная версия] Original Rus

 
Автор Сообщение

reversefile ®

Пол:

Стаж: 4 года 5 месяцев

Сообщений: 842

Откуда: ReverseFile.org



Награды: Нет

Торрент-статистика

Создавать темы 13-Авг-2014 18:26

[Цитировать]

Золушка- Страна: СССРСтудия: ЛенфильмЖанр: сказка, семейный
Год выпуска: 1947
Продолжительность: 01:21:50-Перевод: Не требуется
Cубтитры: нет
Оригинальная аудиодорожка: русский-Режиссеры: Михаил Шапиро, Надежда Кошеверова.-В ролях: Янина Жеймо, Алексей Консовский, Эраст Гарин, Фаина Раневская, Елена Юнгер, Татьяна Селезневская, Василий Меркурьев, Варвара Мясникова, Игорь Клеменков, Сергей Филиппов.-Описание: Основа сюжета - старинный сказочный мотив о трудолюбивой Золушке, злой мачехе и ленивых сестрах. Разумеется, Шварцем переработанный и оживленный до уровня комедии, в которой есть и просто юмор, и злая сатира. До сих пор этот нежный и добрый фильм продолжает радовать и удивлять больших и маленьких. А вы попробуйте не удивиться тому, что к вам в гости приходит волшебница со своим очаровательным пажом и мановением волшебной палочки превращает ваше рубище в бальное платье, а ваши опорки в хрустальные башмачки. Попробуйте просто и естественно усесться в золоченую тыкву, запряженную мышами, и в этой карете поехать на бал к королю. Попробуйте, наконец, танцевать со сказочным королем и влюбиться в волшебного принца.-Доп. информация:
-Скачать сэмпл-Тип релиза: BDRip 1080p
Контейнер: MKV-Видео кодек: H.264
Аудио кодек: DTS,AС3-Видео: MPEG-4 AVC, 11500 Кбит/с, 1488x1080, 23.976 кадр/с
Аудио 1: Russian: DTS / 6 ch / 48 kHz / 1536 kbps / 24-bit
Аудио 2: Russian: AС3 / 1 ch / 48 kHz / 384 kbps / 16-bit
-

MediaInfo

General
Unique ID : 185414343851894671970081056535467653813 (0x8B7D80F21C87EF82B17E98BF4F8DFAB5)
Complete name : C:\Users\1\Documents\Zolushka.Cvetnaya.versiya.1947.BDRip.1080p. (1).mkv
Format : Matroska
Format version : Version 4 / Version 2
File size : 7.66 GiB
Duration : 1h 21mn
Overall bit rate : 13.4 Mbps
Encoded date : UTC 2014-06-13 05:20:37
Writing application : mkvmerge v6.9.1 ('Blue Panther') 64bit built on Apr 18 2014 18:23:38
Writing library : libebml v1.3.0 + libmatroska v1.4.1
Video
ID : 1
Format : AVC
Format/Info : Advanced Video Codec
Format profile : High@L4.1
Format settings, CABAC : Yes
Format settings, ReFrames : 5 frames
Codec ID : V_MPEG4/ISO/AVC
Duration : 1h 21mn
Bit rate : 11.5 Mbps
Width : 1 488 pixels
Height : 1 080 pixels
Display aspect ratio : 1.378
Frame rate mode : Constant
Frame rate : 23.976 fps
Color space : YUV
Chroma subsampling : 4:2:0
Bit depth : 8 bits
Scan type : Progressive
Bits/(Pixel*Frame) : 0.298
Stream size : 6.42 GiB (84%)
Writing library : x264 core 115 r1936 7a9e08d
Encoding settings : cabac=1 / ref=5 / deblock=1:-1:-1 / analyse=0x3:0x113 / me=umh / subme=10 / psy=1 / psy_rd=1.00:0.10 / mixed_ref=1 / me_range=24 / chroma_me=1 / trellis=2 / 8x8dct=1 / cqm=0 / deadzone=21,11 / fast_pskip=0 / chroma_qp_offset=-3 / threads=9 / sliced_threads=0 / nr=0 / decimate=1 / interlaced=0 / bluray_compat=0 / constrained_intra=0 / bframes=9 / b_pyramid=2 / b_adapt=2 / b_bias=0 / direct=3 / weightb=1 / open_gop=0 / weightp=2 / keyint=250 / keyint_min=23 / scenecut=40 / intra_refresh=0 / rc_lookahead=50 / rc=2pass / mbtree=1 / bitrate=11500 / ratetol=1.0 / qcomp=0.70 / qpmin=0 / qpmax=69 / qpstep=4 / cplxblur=20.0 / qblur=0.5 / ip_ratio=1.40 / aq=1:1.00
Language : English
Default : No
Forced : No
Audio #1
ID : 2
Format : DTS
Format/Info : Digital Theater Systems
Mode : 16
Format settings, Endianness : Big
Codec ID : A_DTS
Duration : 1h 21mn
Bit rate mode : Constant
Bit rate : 1 509 Kbps
Channel(s) : 6 channels
Channel positions : Front: L C R, Side: L R, LFE
Sampling rate : 48.0 KHz
Bit depth : 24 bits
Compression mode : Lossy
Delay relative to video : 14ms
Stream size : 883 MiB (11%)
Title : DTS
Language : Russian
Default : Yes
Forced : No
Audio #2
ID : 3
Format : AC-3
Format/Info : Audio Coding 3
Mode extension : CM (complete main)
Format settings, Endianness : Big
Codec ID : A_AC3
Duration : 1h 21mn
Bit rate mode : Constant
Bit rate : 384 Kbps
Channel(s) : 1 channel
Channel positions : Front: C
Sampling rate : 48.0 KHz
Bit depth : 16 bits
Compression mode : Lossy
Delay relative to video : 24ms
Stream size : 225 MiB (3%)
Title : AC3
Language : Russian
Default : No
Forced : No

Скриншоты

]
[Профиль] [ЛС]
Показать сообщения:    

Текущее время: Сегодня 22:09

Часовой пояс: GMT



Вы не можете начинать темы
Вы не можете отвечать на сообщения
Вы не можете редактировать свои сообщения
Вы не можете удалять свои сообщения
Вы не можете голосовать в опросах
Вы не можете прикреплять файлы к сообщениям
Вы не можете скачивать файлы