Золото Маккенны / Mackenna's Gold (1969) DVDRip-AVC | D, P, P2, A

 
Автор Сообщение

Russian Mafia ®

Пол:

Стаж: 1 год 8 месяцев

Сообщений: 4252



Награды: 10 (Подробнее)

Mega Seeder 5 (Количество: 1) Mega Seeder 4 (Количество: 1) Mega Seeder 1 (Количество: 1)
Торрент-статистика

Создавать темы 22-Ноя-2015 16:55

[Цитировать]

Информация о фильме
Название: Хэллоуин: Золото Маккенны
Оригинальное название: Mackenna's Gold
Год выхода: 1969
Жанр: мелодрама, вестерн, приключения, ...
Режиссер: Дж. Ли Томпсон
В ролях: Грегори Пек, Омар Шариф, Телли Савалас, Камилла Спарв, Кинен Уинн, Джули Ньюмар, Тед Кэссиди, Ли Дж. Кобб, Рэймонд Мэсси, Бёрджесс Мередит, ...
О фильме: Благодаря случайным обстоятельствам шериф Маккенна узнает о том, где спрятано золото древнего индейского племени. В качестве «живой карты» он становится заложником бандита Колорадо, который мечтает найти каньон «дьявольское наваждение»… К группе головорезов примыкают все новые и новые охотники за богатством, но далеко не всем суждено будет добраться до цели. Тем более вернуться живыми, ведь на пути к заветной цели их ждет неизвестность…

Страна: США
Студия: Columbia Pictures Corporation, Highroad Productions
Продолжительность: 02:02:50
Перевод:
Профессиональный (дублированный) «Мосфильм»
Профессиональный (многоголосный, закадровый) SomeWax (предположительно)
Профессиональный (многоголосный, закадровый) РГТРК «Останкино»
Профессиональный (двухголосый, закадровый) ГТРК «Культура»
Авторский (одноголосый, закадровый) Гаврилов Андрей Юрьевич
Авторский (одноголосый, закадровый) Визгунов Сергей
Авторский (одноголосый, закадровый) Володарский Леонид Вениаминович
Авторский (одноголосый, закадровый) Дьяконов Константин
Субтитры
Файл
Кодек: x264
Качество: DVDRip
Видео: 1000x428, 4000 kbps, 25 fps
Звук:
Аудио #1: AC-3, 2 ch, 256 kbps (Rus) - Dub Мосфильм СССР
Аудио #2: AC-3, 6 ch, 384 kbps (Rus) - MVO SomeWax
Аудио #3: AC-3, 2 ch, 192 kbps (Rus) - MVO РГТРК Останкино
Аудио #4: AC-3, 2 ch, 192 kbps (Rus) - DVO ГТРК Культура
Аудио #5: AC-3, 2 ch, 192 kbps (Rus) - AVO Гаврилов Андрей Юрьевич
Аудио #6: AC-3, 6 ch, 256 kbps (Rus) - AVO Визгунов Сергей
Аудио #7: AC-3, 2 ch, 192 kbps (Rus) - AVO Володарский Леонид Вениаминович
Аудио #8: AC-3, 6 ch, 256 kbps (Rus) - AVO Дьяконов Константин
Аудио #9: AC-3, 6 ch, 448 kbps (Eng)
Субтитры: Русские (VobSub), Английские (VobSub)

Дополнительная информация

Много было полемики на предмет, как стоит приводить анаморфную картинку к заданному соотношению сторон. Вот сравнение отмасштабированных плеером изображений исходника DVD9 и данного рипа:
Сравнение DVD и DVDRip
Видно, что рип более детален. Значит такой подход к реанимации искажённой анаморфом картинки имеет право быть.

На скриншоте видно как была обрезана картинка для телевидения. Поэтому DVD версия имеет свои преимущества.

MI

x264 [info]: frame I:1901 Avg QP:15.58 size: 94222
x264 [info]: frame P:39364 Avg QP:17.85 size: 39204
x264 [info]: frame B:143009 Avg QP:19.74 size: 13727
x264 [info]: consecutive B-frames: 2.1% 2.8% 7.9% 18.7% 13.1% 48.3% 4.1% 1.7% 0.6% 0.3% 0.1% 0.1% 0.0%
Общее
Уникальный идентификатор : 234220844050267690172956163386736215275 (0xB0354B30F22B98738408E2CE831584EB)
Полное имя : Золото Маккенны (Mackenna's gold) 1969 DVDRip.mkv
Формат : Matroska
Версия формата : Version 2
Размер файла : 5,47 Гбайт
Продолжительность : 2 ч. 2 м.
Общий поток : 6375 Кбит/сек
Дата кодирования : UTC 2015-11-22 10:45:51
Программа кодирования : mkvmerge v4.0.0 ('The Stars were mine') сборка от Jun 6 2010 16:18:42
Библиотека кодирования : libebml v1.0.0 + libmatroska v1.0.0
Видео
Идентификатор : 1
Формат : AVC
Формат/Информация : Advanced Video Codec
Профиль формата : High@L4.1
Параметр CABAC формата : Да
Параметр ReFrames формата : 12 кадров
Идентификатор кодека : V_MPEG4/ISO/AVC
Продолжительность : 2 ч. 2 м.
Битрейт : 4000 Кбит/сек
Ширина : 1000 пикселей
Высота : 428 пикселей
Соотношение сторон : 2,35:1
Режим частоты кадров : Постоянный
Частота кадров : 25,000 кадров/сек
Цветовое пространство : YUV
Субдискретизация насыщенности : 4:2:0
Битовая глубина : 8 бит
Тип развёртки : Прогрессивная
Бит/(Пиксели*Кадры) : 0.374
Размер потока : 3,33 Гбайт (61%)
Библиотека кодирования : x264 core 146 r2538 121396c
Настройки программы : cabac=1 / ref=12 / deblock=1:-3:-3 / analyse=0x3:0x133 / me=umh / subme=11 / psy=1 / psy_rd=1.00:0.00 / mixed_ref=1 / me_range=32 / chroma_me=1 / trellis=2 / 8x8dct=1 / cqm=0 / deadzone=21,11 / fast_pskip=1 / chroma_qp_offset=-4 / threads=12 / lookahead_threads=2 / sliced_threads=0 / nr=0 / decimate=0 / interlaced=0 / bluray_compat=0 / constrained_intra=0 / bframes=12 / b_pyramid=2 / b_adapt=2 / b_bias=0 / direct=3 / weightb=1 / open_gop=0 / weightp=2 / keyint=250 / keyint_min=25 / scenecut=40 / intra_refresh=0 / rc_lookahead=60 / rc=2pass / mbtree=0 / bitrate=4000 / ratetol=1.0 / qcomp=0.60 / qpmin=0 / qpmax=69 / qpstep=4 / cplxblur=20.0 / qblur=0.5 / vbv_maxrate=50000 / vbv_bufsize=62500 / nal_hrd=none / filler=0 / ip_ratio=1.40 / pb_ratio=1.30 / aq=1:0.80
Язык : English
Default : Нет
Forced : Нет
Аудио #1
Идентификатор : 2
Формат : AC-3
Формат/Информация : Audio Coding 3
Расширение режима : CM (complete main)
Параметр Endianness формата : Big
Идентификатор кодека : A_AC3
Продолжительность : 2 ч. 2 м.
Вид битрейта : Постоянный
Битрейт : 256 Кбит/сек
Каналы : 2 канала
Расположение каналов : Front: L R
Частота : 48,0 КГц
Метод сжатия : С потерями
Размер потока : 225 Мбайт (4%)
Заголовок : Dub Мосфильм СССР
Язык : Russian
Default : Нет
Forced : Нет
Аудио #2
Идентификатор : 3
Формат : AC-3
Формат/Информация : Audio Coding 3
Расширение режима : CM (complete main)
Параметр Endianness формата : Big
Идентификатор кодека : A_AC3
Продолжительность : 2 ч. 2 м.
Вид битрейта : Постоянный
Битрейт : 384 Кбит/сек
Каналы : 6 каналов
Расположение каналов : Front: L C R, Side: L R, LFE
Частота : 48,0 КГц
Метод сжатия : С потерями
Размер потока : 337 Мбайт (6%)
Заголовок : MVO SomeWax
Язык : Russian
Default : Нет
Forced : Нет
Аудио #3
Идентификатор : 4
Формат : AC-3
Формат/Информация : Audio Coding 3
Расширение режима : CM (complete main)
Параметр Endianness формата : Big
Идентификатор кодека : A_AC3
Продолжительность : 2 ч. 2 м.
Вид битрейта : Постоянный
Битрейт : 192 Кбит/сек
Каналы : 2 канала
Расположение каналов : Front: L R
Частота : 48,0 КГц
Метод сжатия : С потерями
Размер потока : 169 Мбайт (3%)
Заголовок : MVO РГТРК Останкино (Наталья Защипина, Алексей Инжеватов, Виталий Ованесов, Александр Хотченков)
Язык : Russian
Default : Нет
Forced : Нет
Аудио #4
Идентификатор : 5
Формат : AC-3
Формат/Информация : Audio Coding 3
Расширение режима : CM (complete main)
Параметр Endianness формата : Big
Идентификатор кодека : A_AC3
Продолжительность : 2 ч. 2 м.
Вид битрейта : Постоянный
Битрейт : 192 Кбит/сек
Каналы : 2 канала
Расположение каналов : Front: L R
Частота : 48,0 КГц
Метод сжатия : С потерями
Размер потока : 169 Мбайт (3%)
Заголовок : DVO ГТРК Культура (Елена Борзунова и Александр Коврижных)
Язык : Russian
Default : Нет
Forced : Нет
Аудио #5
Идентификатор : 6
Формат : AC-3
Формат/Информация : Audio Coding 3
Расширение режима : CM (complete main)
Параметр Endianness формата : Big
Идентификатор кодека : A_AC3
Продолжительность : 2 ч. 2 м.
Вид битрейта : Постоянный
Битрейт : 192 Кбит/сек
Каналы : 2 канала
Расположение каналов : Front: L R
Частота : 48,0 КГц
Метод сжатия : С потерями
Размер потока : 169 Мбайт (3%)
Заголовок : AVO Гаврилов Андрей Юрьевич
Язык : Russian
Default : Нет
Forced : Нет
Аудио #6
Идентификатор : 7
Формат : AC-3
Формат/Информация : Audio Coding 3
Расширение режима : CM (complete main)
Параметр Endianness формата : Big
Идентификатор кодека : A_AC3
Продолжительность : 2 ч. 2 м.
Вид битрейта : Постоянный
Битрейт : 256 Кбит/сек
Каналы : 6 каналов
Расположение каналов : Front: L C R, Side: L R, LFE
Частота : 48,0 КГц
Метод сжатия : С потерями
Размер потока : 225 Мбайт (4%)
Заголовок : AVO Визгунов Сергей
Язык : Russian
Default : Нет
Forced : Нет
Аудио #7
Идентификатор : 8
Формат : AC-3
Формат/Информация : Audio Coding 3
Расширение режима : CM (complete main)
Параметр Endianness формата : Big
Идентификатор кодека : A_AC3
Продолжительность : 2 ч. 2 м.
Вид битрейта : Постоянный
Битрейт : 192 Кбит/сек
Каналы : 2 канала
Расположение каналов : Front: L R
Частота : 48,0 КГц
Метод сжатия : С потерями
Размер потока : 169 Мбайт (3%)
Заголовок : AVO Володарский Леонид Вениаминович
Язык : Russian
Default : Нет
Forced : Нет
Аудио #8
Идентификатор : 9
Формат : AC-3
Формат/Информация : Audio Coding 3
Расширение режима : CM (complete main)
Параметр Endianness формата : Big
Идентификатор кодека : A_AC3
Продолжительность : 2 ч. 2 м.
Вид битрейта : Постоянный
Битрейт : 256 Кбит/сек
Каналы : 6 каналов
Расположение каналов : Front: L C R, Side: L R, LFE
Частота : 48,0 КГц
Метод сжатия : С потерями
Размер потока : 225 Мбайт (4%)
Заголовок : AVO Дьяконов Константин
Язык : Russian
Default : Нет
Forced : Нет
Аудио #9
Идентификатор : 10
Формат : AC-3
Формат/Информация : Audio Coding 3
Расширение режима : CM (complete main)
Параметр Endianness формата : Big
Идентификатор кодека : A_AC3
Продолжительность : 2 ч. 2 м.
Вид битрейта : Постоянный
Битрейт : 448 Кбит/сек
Каналы : 6 каналов
Расположение каналов : Front: L C R, Side: L R, LFE
Частота : 48,0 КГц
Метод сжатия : С потерями
Размер потока : 394 Мбайт (7%)
Язык : English
Default : Нет
Forced : Нет
Текст #1
Идентификатор : 11
Формат : VobSub
Режим смешивания : zlib
Идентификатор кодека : S_VOBSUB
Идентификатор кодека/Информация : Picture based subtitle format used on DVDs
Язык : Russian
Default : Нет
Forced : Нет
Текст #2
Идентификатор : 12
Формат : VobSub
Режим смешивания : zlib
Идентификатор кодека : S_VOBSUB
Идентификатор кодека/Информация : Picture based subtitle format used on DVDs
Язык : English
Default : Нет
Forced : Нет
Семпл

[Профиль] [ЛС]
Показать сообщения:    

Текущее время: Сегодня 00:48

Часовой пояс: GMT



Вы не можете начинать темы
Вы не можете отвечать на сообщения
Вы не можете редактировать свои сообщения
Вы не можете удалять свои сообщения
Вы не можете голосовать в опросах
Вы не можете прикреплять файлы к сообщениям
Вы не можете скачивать файлы