Золото дураков / Fool\'s Gold (Энди Теннант / Andy Tennant) [2008, США, комедия, мелодрама, приключения, BDRip] AVO (Евгений Гранкин) + Dub Ukr

 
Автор Сообщение

TorrentFilm ®

Пол:

Стаж: 2 года

Сообщений: 7741



Награды: Нет

Торрент-статистика

Создавать темы 23-Сен-2015 00:06

[Цитировать]

Золото дураков / Fool's Gold- Страна: США
Жанр: комедия, мелодрама, приключения
Год выпуска: 2008
Продолжительность: 01:52:26
Перевод: Авторский (одноголосый закадровый) Евгений Гранкин
Перевод 2: Профессиональный (дублированный) Украинский
Cубтитры: нет-Режиссер: Энди Теннант / Andy Tennant
В ролях: Мэттью МакКонахи, Кейт Хадсон, Дональд Сазерленд, Алексис Дзена, Юэн Бремнер, Рэй Уинстон, Кевин Харт, Мальколм-Ямал Уорнер, Брайан Хукс, Дэвид Робертс-Описание: Бенн "Финн" Финнеган - добродушный парень, в прошлом серфер, а ныне охотник за сокровищами, помешанный на идее отыскать легендарное королевское приданое - 40 сундуков с сокровищами, затонувшими в 1715-м году в море. Отчаянные поиски клада утопили всё, что было ценным для Финна, включая некогда счастливый брак с Тесс Финнеган и его горе-лодку под названием «Нажива зовет». Тесс, решив начать новую жизнь, устраивается работать на яхту миллиардера Найджела Ханиката… но именно тогда Финн, наконец-то, получает главную подсказку о местонахождения клада, и гонка за сокровищами начинается…-Сэмпл-Качество видео: BDRip
Формат видео: AVI
Видео: 720x304 (2.37:1), 23.976 fps, XviD build 47 ~1463 kbps avg, 0.28 bit/pixel
Аудио: 48 kHz, AC3 Dolby Digital, 2/0 (L,R) ch, ~192 kbps
Аудио 2: 48 kHz, AC3 Dolby Digital, 2/0 (L,R) ch, ~192 kbps

Спасибо

За видеоряд большое спасибо S.L.E.V.I.N
За аудиодорожку большое спасибо Fred198
За синхронизацию большое спасибо JIuI3epIIyJIb

MediaInfo

General
Complete name : E:\Downloads\Zolotodurakov.avi
Format : AVI
Format/Info : Audio Video Interleave
File size : 1.46 GiB
Duration : 1h 52mn
Overall bit rate : 1 863 Kbps
Writing application : VirtualDubMod 1.5.10.2 (build 2540/release)
Writing library : VirtualDubMod build 2540/release
Video
ID : 0
Format : MPEG-4 Visual
Format profile : Advanced Simple@L5
Format settings, BVOP : 1
Format settings, QPel : No
Format settings, GMC : No warppoints
Format settings, Matrix : Custom
Codec ID : XVID
Codec ID/Hint : XviD
Duration : 1h 52mn
Bit rate : 1 464 Kbps
Width : 720 pixels
Height : 304 pixels
Display aspect ratio : 2.35:1
Frame rate : 23.976 fps
Color space : YUV
Chroma subsampling : 4:2:0
Bit depth : 8 bits
Scan type : Progressive
Compression mode : Lossy
Bits/(Pixel*Frame) : 0.279
Stream size : 1.15 GiB (79%)
Writing library : XviD 1.2.0.dev47 (UTC 2006-11-01)
Audio #1
ID : 1
Format : AC-3
Format/Info : Audio Coding 3
Mode extension : CM (complete main)
Format settings, Endianness : Big
Codec ID : 2000
Duration : 1h 52mn
Bit rate mode : Constant
Bit rate : 192 Kbps
Channel(s) : 2 channels
Channel positions : Front: L R
Sampling rate : 48.0 KHz
Bit depth : 16 bits
Compression mode : Lossy
Stream size : 154 MiB (10%)
Alignment : Split accross interleaves
Interleave, duration : 42 ms (1.00 video frame)
Interleave, preload duration : 500 ms
Audio #2
ID : 2
Format : AC-3
Format/Info : Audio Coding 3
Mode extension : CM (complete main)
Format settings, Endianness : Big
Codec ID : 2000
Duration : 1h 52mn
Bit rate mode : Constant
Bit rate : 192 Kbps
Channel(s) : 2 channels
Channel positions : Front: L R
Sampling rate : 48.0 KHz
Bit depth : 16 bits
Compression mode : Lossy
Stream size : 154 MiB (10%)
Alignment : Split accross interleaves
Interleave, duration : 42 ms (1.00 video frame)
Interleave, preload duration : 500 ms

Скриншот c названием фильма

Скриншоты

[Профиль] [ЛС]

Создавать темы 12-Июн-2016 08:50 (спустя 8 месяцев 19 дней)

Топик был перенесен из форума Фильмы 2011 года в форум Фильмы 2006-2008 года
Russian Mafia
 
Показать сообщения:    

Текущее время: Сегодня 16:26

Часовой пояс: GMT



Вы не можете начинать темы
Вы не можете отвечать на сообщения
Вы не можете редактировать свои сообщения
Вы не можете удалять свои сообщения
Вы не можете голосовать в опросах
Вы не можете прикреплять файлы к сообщениям
Вы не можете скачивать файлы