Золотой мальчик / Un ragazzo d'oro (2014) HDRip | Чистый звук

 
Автор Сообщение

достали все ®

Пол:

Стаж: 1 год 8 месяцев

Сообщений: 6525



Награды: 12 (Подробнее)

Mega Seeder 3 (Количество: 1) Mega Releaser 3 (Количество: 1) Mega Seeder 2 (Количество: 1)
Торрент-статистика

Создавать темы 24-Июл-2015 08:57

[Цитировать]

Информация о фильме
Название: Золотой мальчик
Оригинальное название: Un ragazzo d'oro
Год выхода: 2014
Жанр: Драма
Режиссер: Пупи Авати
В ролях: Риккардо Скамарчио, Шэрон Стоун, Кристиана Капотонди, Джованна Ралли, Люсия Росси, Кристиан Стеллути, Освальдо Ружиери, Томмазо Раньо, Сандро Дори, Фабио Феррари
О фильме:
Давиде Бьяс писал тексты для рекламного агентства, но его амбиции простирались гораздо дальше — он мечтал создать настоящее литературное произведение. Мечта воплотилась в реальность абсолютно невероятным способом. На похоронах отца он познакомился с красивой и загадочной Людовикой. Она попросила Давиде найти в компьютере отца черновик написанных им незадолго до смерти мемуаров, чтобы изъять кусок, связанный с ее именем. Ничего не обнаружив, Давиде решает под именем отца писать сам и выдавать Людовике текст частями…

Выпущено: Италия / Duea Film, Combo Produzioni, Rai Cinema
Продолжительность: 01:35:25
Перевод: Профессиональный многоголосый (Чистый звук)
Файл
Кодек: AVI
Качество: HDRip
Видео: XviD, 953 Кбит/с, 720x304
Звук: MP3, 2 ch, 128 Кбит/с

MI

Общее
Полное имя : E:Раздача-BDRipZolotoy.Pacan.2014.P.HDRip.745MB.avi
Формат : AVI
Формат/Информация : Audio Video Interleave
Размер файла : 745 Мбайт
Продолжительность : 1 ч. 35 м.
Общий поток : 1091 Кбит/сек
Название фильма : Zolotoy.Pacan.2014.P.HDRip.745MB.ELEKTRI4KA.uniongang.tv
Программа кодирования : VirtualDubMod 1.5.10.3 | www.virtualdub-fr.org || (build 2550/release)
Правообладатель : UNIONGANG&RUSTORRENTS
Видео
Идентификатор : 0
Формат : MPEG-4 Visual
Профиль формата : Advanced Simple@L5
Параметр BVOP формата : 2
Параметр QPel формата : Нет
Параметр GMC формата : Без точки перехода
Параметр матрицы формата : Default (MPEG)
Идентификатор кодека : XVID
Идентификатор кодека/Подсказка : XviD
Продолжительность : 1 ч. 35 м.
Битрейт : 954 Кбит/сек
Ширина : 720 пикселей
Высота : 304 пикселя
Соотношение сторон : 2,35:1
Частота кадров : 24,000 кадра/сек
Цветовое пространство : YUV
Субдискретизация насыщенности : 4:2:0
Битовая глубина : 8 бит
Тип развёртки : Прогрессивная
Метод сжатия : С потерями
Бит/(Пиксели*Кадры) : 0.182
Размер потока : 651 Мбайт (87%)
Библиотека кодирования : XviD 1.2.1 (UTC 2008-12-04)
Аудио
Идентификатор : 1
Формат : MPEG Audio
Версия формата : Version 1
Профиль формата : Layer 3
Режим : Joint stereo
Расширение режима : MS Stereo
Идентификатор кодека : 55
Идентификатор кодека/Подсказка : MP3
Продолжительность : 1 ч. 35 м.
Вид битрейта : Постоянный
Битрейт : 128 Кбит/сек
Каналы : 2 канала
Частота : 48,0 КГц
Метод сжатия : С потерями
Размер потока : 87,4 Мбайт (12%)
Выравнивание : Соединение по промежуткам
Продолжительность промежутка : 42 мс. (1,00 видеокадр)
Время предзагрузки промежутка : 504 мс.
Библиотека кодирования : LAME3.99r
Настройки программы : -m j -V 4 -q 2 -lowpass 17 -b 128
[Профиль] [ЛС]
Показать сообщения:    

Текущее время: Сегодня 11:49

Часовой пояс: GMT



Вы не можете начинать темы
Вы не можете отвечать на сообщения
Вы не можете редактировать свои сообщения
Вы не можете удалять свои сообщения
Вы не можете голосовать в опросах
Вы не можете прикреплять файлы к сообщениям
Вы не можете скачивать файлы