Золотой гранат / The Golden Pomegranate / Rimon hazahav (Дан Турджеман / Dan Turgeman) [2010, Израиль, США, драма, DVDRip-AVC] Sub Rus, Heb + Original Heb, Eng

 
Автор Сообщение

TorrentFilm ®

Пол:

Стаж: 2 года

Сообщений: 7741



Награды: Нет

Торрент-статистика

Создавать темы 09-Окт-2015 00:09

[Цитировать]

Золотой гранат / The Golden Pomegranate / Rimon hazahav
Страна: Израиль, США
Жанр: драма
Год выпуска: 2010
Продолжительность: 01:42:17
Перевод: Субтитры
Cубтитры: русские (softsub), иврит (hardsub)
Оригинальная аудиодорожка: иврит, английский
Режиссер: Дан Турджеман / Dan Turgeman
В ролях: Ринат Абулафиа, Авив Алуш, Эллен Анредер, Мати Атлас, Джоэнна Бейлесс, Даниэл Брусовани, Риф Коэн, Михаэль Ситрин, Саид Дасуки, Маайан Элиаси
Описание: История жизни Мазаль, женщины-ювелира, переселившейся из Йемена в Иерусалим в конце 19-го века.
Доп. информация: КиноПоиск, IMDb
Сэмпл: http://www.mediafire.com/watch/s9wozih5u0m0bnh/Samp...granate_2010.avi
Качество видео: DVDRip-AVC
Формат видео: AVI
Видео: H264 720х576 16:9 25 кадров/сек 1900 Кбит/сек
Аудио: MP3 44.1 КГц 2 канала 224 Кбит/сек
Формат субтитров: softsub (ASS)

Образец субтитров

Dialogue: 0,0:01:13.80,0:01:16.83,Default,,0,0,0,,Ты преуспеешь в Иерусалиме, Эзра.
Dialogue: 0,0:01:16.93,0:01:20.30,Default,,0,0,0,,У тебя руки ювелира.
Dialogue: 0,0:01:20.32,0:01:24.99,Default,,0,0,0,,Ты видишь в золоте скрытую красоту.
Dialogue: 0,0:01:25.00,0:01:28.51,Default,,0,0,0,,Почему бы тебе не уйти с нами?
Dialogue: 0,0:01:28.52,0:01:32.27,Default,,0,0,0,,Каково будет Мазаль без матери\Nи без тебя, её отца?
Dialogue: 0,0:01:32.28,0:01:37.11,Default,,0,0,0,,Что, если я не смогу прокормить её?
Dialogue: 0,0:01:37.11,0:01:42.11,Default,,0,0,0,,С Божьей помощью\Nмы присоединимся к вам скоро.
Dialogue: 0,0:01:49.32,0:01:52.43,Default,,0,0,0,,Один Бог знает,\Nкуда ты посылаешь детей.
Dialogue: 0,0:01:52.44,0:01:54.83,Default,,0,0,0,,Шшш... Мирьям.
Dialogue: 0,0:01:54.84,0:01:56.55,Default,,0,0,0,,Ты оскверняешь святыню.
Dialogue: 0,0:01:56.56,0:01:58.83,Default,,0,0,0,,Немного веры.
Dialogue: 0,0:01:58.84,0:02:02.43,Default,,0,0,0,,Сколько людей были бы рады отдать руку,\Nчтобы оказаться на Земле Обетованной.
Dialogue: 0,0:02:02.44,0:02:05.62,Default,,0,0,0,,Меня не интересуют чужие руки!
Dialogue: 0,0:02:05.72,0:02:07.91,Default,,0,0,0,,Она - ещё ребёнок.
Dialogue: 0,0:02:07.92,0:02:10.71,Default,,0,0,0,,Если уж суждено нам остаться,
Dialogue: 0,0:02:10.71,0:02:15.71,Default,,0,0,0,,то пусть хотя бы один из нас\Nдостигнет Иерусалима.
Dialogue: 0,0:02:16.24,0:02:19.23,Default,,0,0,0,,Позволь ей идти.
Dialogue: 0,0:02:19.24,0:02:23.03,Default,,0,0,0,,Они никогда не разрешат тебе уйти.
Dialogue: 0,0:02:23.04,0:02:26.67,Default,,0,0,0,,Никогда.

MediaInfo

Общее
Полное имя : The Golden Pomegranate 2010.avi
Формат : AVI
Формат/Информация : Audio Video Interleave
Размер файла : 1,53 Гбайт
Продолжительность : 1 ч. 42 м.
Общий поток : 2136 Кбит/сек
Видео
Идентификатор : 0
Формат : AVC
Формат/Информация : Advanced Video Codec
Профиль формата : Main@L3.0
Параметр CABAC формата : Да
Параметр ReFrames формата : 2 кадра
Идентификатор кодека : H264
Продолжительность : 1 ч. 42 м.
Продолжительность оригинала : 1 ч. 42 м.
Битрейт : 1900 Кбит/сек
Ширина : 720 пикселей
Высота : 576 пикселей
Соотношение сторон : 16:9
Частота кадров : 25,000 кадров/сек
Стандарт вещания : PAL
Цветовое пространство : YUV
Субдискретизация насыщенности : 4:2:0
Битовая глубина : 8 бит
Тип развёртки : Прогрессивная
Бит/(Пиксели*Кадры) : 0.183
Размер потока : 1,36 Гбайт (89%)
Библиотека кодирования : x264 core 65
Настройки программы : cabac=1 / ref=2 / deblock=1:0:0 / analyse=0x1:0x111 / me=umh / subme=6 / psy_rd=1.0:0.0 / mixed_ref=0 / me_range=16 / chroma_me=1 / trellis=0 / 8x8dct=0 / cqm=0 / deadzone=21,11 / chroma_qp_offset=-2 / threads=12 / nr=0 / decimate=1 / mbaff=0 / bframes=2 / b_pyramid=0 / b_adapt=1 / b_bias=0 / direct=1 / wpredb=0 / keyint=250 / keyint_min=25 / scenecut=40(pre) / rc=2pass / bitrate=1900 / ratetol=1.0 / qcomp=0.60 / qpmin=10 / qpmax=51 / qpstep=4 / cplxblur=20.0 / qblur=0.5 / ip_ratio=1.40 / pb_ratio=1.30 / aq=1:1.00
Основные цвета : BT.601 NTSC
Характеристики трансфера : BT.709
Коэффициенты матрицы : BT.601
Аудио
Идентификатор : 1
Формат : MPEG Audio
Версия формата : Version 1
Профиль формата : Layer 3
Режим : Joint stereo
Идентификатор кодека : 55
Идентификатор кодека/Подсказка : MP3
Продолжительность : 1 ч. 42 м.
Продолжительность оригинала : 1 ч. 42 м.
Вид битрейта : Постоянный
Битрейт : 224 Кбит/сек
Каналы : 2 канала
Частота : 44,1 КГц
Метод сжатия : С потерями
Размер потока : 164 Мбайт (10%)
Выравнивание : Разделение по промежуткам
Продолжительность промежутка : 26 мс. (0,65 видеокадр)
Библиотека кодирования : LAME3.98

Скриншот c названием фильма

Скриншоты




[Профиль] [ЛС]

Создавать темы 12-Июн-2016 07:53 (спустя 8 месяцев 3 дня)

Топик был перенесен из форума Фильмы 2011 года в форум Фильмы 2010 года
Russian Mafia
 
Показать сообщения:    

Текущее время: Сегодня 14:47

Часовой пояс: GMT



Вы не можете начинать темы
Вы не можете отвечать на сообщения
Вы не можете редактировать свои сообщения
Вы не можете удалять свои сообщения
Вы не можете голосовать в опросах
Вы не можете прикреплять файлы к сообщениям
Вы не можете скачивать файлы