Золотой Глобус: Япония / Golden Globe: Japan (Марк Миллер / Mark Miller) [2009 г., Документальный, BDRip 720p]

 
Автор Сообщение

TorrentFilm ®

Пол:

Стаж: 2 года

Сообщений: 7741



Награды: Нет

Торрент-статистика

Создавать темы 17-Фев-2015 00:01

[Цитировать]

Золотой Глобус: Япония / Golden Globe: Japan
-Год выпуска: 2009
Страна: Германия | Komplett-Media
Жанр: Документальный
Продолжительность: 01:32:37
Перевод: Профессиональный одноголосый, DVD R5
Режиссер: Марк Миллер / Mark Miller
Русские субтитры: нет-Описание: Легендарное святилище Исе, которому больше 2000 лет, посвященное богине солнца Аматера-су, а также бесчисленные храмы свидетельст ют о богатой многовековой истории японской империи. Неповторимость ей придают легенды о самураях, сегунах и монахах, которые формировали индивидуальность жителей Японских островов. Мы отправляемся в колыбель японского буддизма — Нару, где среди множества памятников находится храм Тодай-дзи, самая большая в мире древняя деревянная постройка. Затем мы направимся к храмам Киото, а затем в колоссальный мегаполис — Токио — экономический и политический центр страны, где современная жизнь бьет ключом. Очередные остановки в незабываемом путешествии по Японии — национальный парк Хаконе, храмовый комплекс в Никко и расположенный в горах город Такаяма. Оттуда мы отправимся к горячим источникам Нагано, очередной восхитительной метрополии — Осаке — и, наконец, к священной долине Коясан с более чем 2000 буддийских храмов, пагод, ступ и гробниц. Хиросима, возрожденная из пепла после атомного апокалипсиса,— главная агломерация западной части острова Хонсю. После посещения знаменитого храма Ицукусима мы переправимся на остров Кюсю, чтобы посмотреть на борцов сумо, искупаться в традиционной онсен и прокатиться на скоростном поезде-синкансене.-Релиз: by DeTorquemada-Тип релиза: BDRip 720p
Контейнер: MKV
Видео: 1280x720 at 25.000 fps, x264@L4.1, 7004 kbps
Аудио: Russian: 48 kHz/16-bit, АС3, 2.0 (L,R) ch, ~192 kbps
Аудио 2: Ukrainian: 48 kHz/16-bit, АС3, 2.0 (L,R) ch, ~192 kbps
Аудио 3: German: 48 kHz/16-bit, АС3, 2.0 (L,R) ch, ~256 kbps
Субтитры: нет
Сэмпл-

Скриншоты

MediaInfo

General
Unique ID : 187076417542414670052934779803191368090 (0x8CBD9B81688089F88E6D9519B57E599A)
Complete name : D:\Фильмы\Japan.2009.720p.BluRay.Rus.Ukr.Ger.HDCLUB.mkv
Format : Matroska
Format version : Version 4 / Version 2
File size : 5.05 GiB
Duration : 1h 32mn
Overall bit rate : 7 799 Kbps
Movie name : Create by DeTorquemada for HDCLUB
Encoded date : UTC 2014-07-26 06:59:13
Writing application : mkvmerge v7.0.0 ('Where We Going') 64bit built on Jun 9 2014 15:16:27
Writing library : libebml v1.3.0 + libmatroska v1.4.1
DURATION : 01:32:37.024000000
NUMBER_OF_FRAMES : 173657
NUMBER_OF_BYTES : 177824768
_STATISTICS_WRITING_APP : mkvmerge v7.0.0 ('Where We Going') 64bit built on Jun 9 2014 15:16:27
_STATISTICS_WRITING_DATE_UTC : 2014-07-26 06:59:13
_STATISTICS_TAGS : BPS DURATION NUMBER_OF_FRAMES NUMBER_OF_BYTES
Video
ID : 1
Format : AVC
Format/Info : Advanced Video Codec
Format profile : High@L4.1
Format settings, CABAC : Yes
Format settings, ReFrames : 7 frames
Codec ID : V_MPEG4/ISO/AVC
Duration : 1h 32mn
Bit rate : 7 004 Kbps
Width : 1 280 pixels
Height : 720 pixels
Display aspect ratio : 16:9
Frame rate mode : Constant
Frame rate : 25.000 fps
Color space : YUV
Chroma subsampling : 4:2:0
Bit depth : 8 bits
Scan type : Progressive
Bits/(Pixel*Frame) : 0.304
Stream size : 4.53 GiB (90%)
Title : Золотой Глобус: Япония / Golden Globe: Japan (2009) - Realise for HDCLUB
Writing library : x264 core 138 r2358 9e941d1
Encoding settings : cabac=1 / ref=7 / deblock=1:-3:-3 / analyse=0x3:0x113 / me=umh / subme=10 / psy=1 / psy_rd=1.00:0.00 / mixed_ref=1 / me_range=48 / chroma_me=1 / trellis=2 / 8x8dct=1 / cqm=0 / deadzone=21,11 / fast_pskip=1 / chroma_qp_offset=-2 / threads=6 / lookahead_threads=1 / sliced_threads=0 / nr=0 / decimate=1 / interlaced=0 / bluray_compat=0 / constrained_intra=0 / bframes=3 / b_pyramid=2 / b_adapt=2 / b_bias=0 / direct=1 / weightb=1 / open_gop=0 / weightp=2 / keyint=250 / keyint_min=25 / scenecut=40 / intra_refresh=0 / rc_lookahead=65 / rc=crf / mbtree=0 / crf=17.0 / qcomp=0.60 / qpmin=0 / qpmax=69 / qpstep=4 / vbv_maxrate=50000 / vbv_bufsize=62500 / crf_max=0.0 / nal_hrd=none / ip_ratio=1.40 / pb_ratio=1.30 / aq=1:0.80
Language : German
Default : Yes
Forced : No
DURATION : 01:32:37.040000000
NUMBER_OF_FRAMES : 138926
NUMBER_OF_BYTES : 4971495650
_STATISTICS_WRITING_APP : mkvmerge v7.0.0 ('Where We Going') 64bit built on Jun 9 2014 15:16:27
_STATISTICS_WRITING_DATE_UTC : 2014-07-26 06:59:13
_STATISTICS_TAGS : BPS DURATION NUMBER_OF_FRAMES NUMBER_OF_BYTES
Matrix coefficients : BT.709
Audio #1
ID : 2
Format : AC-3
Format/Info : Audio Coding 3
Mode extension : CM (complete main)
Format settings, Endianness : Big
Codec ID : A_AC3
Duration : 1h 32mn
Bit rate mode : Constant
Bit rate : 192 Kbps
Channel(s) : 2 channels
Channel positions : Front: L R
Sampling rate : 48.0 KHz
Bit depth : 16 bits
Compression mode : Lossy
Stream size : 127 MiB (2%)
Title : 48KHz/16-bit, DTS, 2.0 (L,R) ch, 192 kbps - Профессиональный oдноголосый
Language : Russian
Default : Yes
Forced : No
Audio #2
ID : 3
Format : AC-3
Format/Info : Audio Coding 3
Mode extension : CM (complete main)
Format settings, Endianness : Big
Codec ID : A_AC3
Duration : 1h 32mn
Bit rate mode : Constant
Bit rate : 192 Kbps
Channel(s) : 2 channels
Channel positions : Front: L R
Sampling rate : 48.0 KHz
Bit depth : 16 bits
Compression mode : Lossy
Stream size : 127 MiB (2%)
Title : 48KHz/16-bit, DTS, 2.0 (L,R) ch, 192 kbps - Профессиональный oдноголосый
Language : Ukrainian
Default : No
Forced : No
Audio #3
ID : 4
Format : AC-3
Format/Info : Audio Coding 3
Mode extension : CM (complete main)
Format settings, Endianness : Big
Codec ID : A_AC3
Duration : 1h 32mn
Bit rate mode : Constant
Bit rate : 256 Kbps
Channel(s) : 2 channels
Channel positions : Front: L R
Sampling rate : 48.0 KHz
Bit depth : 16 bits
Compression mode : Lossy
Stream size : 170 MiB (3%)
Title : 48KHz/16-bit, DTS, 2.0 (L,R) ch, 256 kbps
Language : German
Default : No
Forced : No
Menu
00:00:00.000 : en:
00:02:23.600 : en:
00:03:59.120 : en:
00:08:59.599 : en:
00:16:32.720 : en:
00:20:55.760 : en:
00:40:59.120 : en:
00:48:23.600 : en:
00:54:16.400 : en:
01:00:14.479 : en:
01:09:30.800 : en:

Дополнительно

Сохранены оригинальные чаптеры как на Blu-ray.
Раздача от группы:
[Профиль] [ЛС]
Показать сообщения:    

Текущее время: Сегодня 22:37

Часовой пояс: GMT



Вы не можете начинать темы
Вы не можете отвечать на сообщения
Вы не можете редактировать свои сообщения
Вы не можете удалять свои сообщения
Вы не можете голосовать в опросах
Вы не можете прикреплять файлы к сообщениям
Вы не можете скачивать файлы