Золотой глобус: Южные моря (Французская Полинезия) / Golden Globe: Südsee (Херберт Ленц / Herbert Lenz, Катрин Вагнер / Kathrin Wagner) [2009 г., Документальный, BDRip 720p]

 
Автор Сообщение

TorrentFilm ®

Пол:

Стаж: 2 года

Сообщений: 7741



Награды: Нет

Торрент-статистика

Создавать темы 06-Апр-2015 00:04

[Цитировать]

Золотой глобус: Южные моря (Французская Полинезия) / Golden Globe: Südsee
-Год выпуска: 2009
Страна: Германия | Komplett-Media
Жанр: Документальный
Продолжительность: 01:26:07
Перевод: Профессиональный одноголосый, DVD R5
Режиссер: Херберт Ленц / Herbert Lenz, Катрин Вагнер / Kathrin Wagner
Русские субтитры: нет-Описание: Разбросанные в Тихом океане острова Французской Полинезии европейцы открывали постепенно, в течение 350 лет, в ходе очередных экспедиций, искавших таинственный континент Terra Australis. Моряки привозили домой красочные истории о райских пейзажах и радушных островитянах, вдохновляя воображение художников. Так, Поль Гоген, очарованный экзотикой этого далекого архипелага, остался здесь жить до самой смерти. Самый большой остров Французской Полинезии — Таити. Предчувствие большого приключения возникает от посещения его столицы Папеэте с экзотическим рынком, полным красок и ароматов. Среди вулканических пейзажей мы увидим величественный водопад, место старинных таинственных культов и торговли знаменитыми черными жемчужинами. Рейс на парусном судне откроет для нас еще более прекрасные уголки волшебных атоллов. Остров Моореа поражает своими вулканическими пейзажами, Раиатеа—тропической растительностью и таинственными мараэ, где жрецы-шаманы совершали магические, нередко жестокие жертвенные ритуалы. Красавицы-таитянки научат вас танцевать на Тахаа, откуда мы отправимся на самый красивый остров Французской Полинезии — Бора-Бора, любимое место отдыха обеспеченных туристов. Мы попрощаемся с райскими островами в лагунах Рангироа, третьего по величине атолла в мире.-Релиз: by DeTorquemada-Тип релиза: BDRip 720p
Контейнер: MKV
Видео: 1280x720 at 25.000 fps, x264@L4.1, 6837 kbps
Аудио: Russian: 48 kHz/16-bit, АС3, 2.0 (L,R) ch, ~192 kbps
Аудио 2: Ukrainian: 48 kHz/16-bit, АС3, 2.0 (L,R) ch, ~192 kbps
Аудио 3: German: 48 kHz/16-bit, АС3, 2.0 (L,R) ch, ~256 kbps
Субтитры: нет-Сэмпл-

Скриншоты

MediaInfo

General
Unique ID : 234539839782677965404217284964768359859 (0xB072BAE524448757AF1DC9C7C3FD25B3)
Complete name : D:\Фильмы\Sudse.2009.720p.BluRay.Rus.Ukr.Ger.HDCLUB.mkv
Format : Matroska
Format version : Version 4 / Version 2
File size : 4.59 GiB
Duration : 1h 26mn
Overall bit rate : 7 629 Kbps
Movie name : Create by DeTorquemada for HDCLUB
Encoded date : UTC 2015-03-07 21:16:55
Writing application : mkvmerge v7.2.0 ('On Every Street') 64bit built on Sep 13 2014 15:52:10
Writing library : libebml v1.3.0 + libmatroska v1.4.1
Video
ID : 1
Format : AVC
Format/Info : Advanced Video Codec
Format profile : High@L4.1
Format settings, CABAC : Yes
Format settings, ReFrames : 7 frames
Codec ID : V_MPEG4/ISO/AVC
Duration : 1h 26mn
Bit rate : 6 837 Kbps
Width : 1 280 pixels
Height : 720 pixels
Display aspect ratio : 16:9
Frame rate mode : Constant
Frame rate : 25.000 fps
Color space : YUV
Chroma subsampling : 4:2:0
Bit depth : 8 bits
Scan type : Progressive
Bits/(Pixel*Frame) : 0.297
Stream size : 4.11 GiB (90%)
Title : Золотой Глобус : Южные моря (Французкая Полинезия) / Golden Globe: Sudse (2009) - Release for HDCLUB
Writing library : x264 core 142 r2431 ac76440
Encoding settings : cabac=1 / ref=7 / deblock=1:-3:-3 / analyse=0x3:0x113 / me=umh / subme=10 / psy=1 / psy_rd=1.00:0.00 / mixed_ref=1 / me_range=48 / chroma_me=1 / trellis=2 / 8x8dct=1 / cqm=0 / deadzone=21,11 / fast_pskip=1 / chroma_qp_offset=-2 / threads=6 / lookahead_threads=1 / sliced_threads=0 / nr=0 / decimate=1 / interlaced=0 / bluray_compat=0 / constrained_intra=0 / bframes=3 / b_pyramid=2 / b_adapt=2 / b_bias=0 / direct=1 / weightb=1 / open_gop=0 / weightp=2 / keyint=250 / keyint_min=25 / scenecut=40 / intra_refresh=0 / rc_lookahead=65 / rc=crf / mbtree=0 / crf=18.0 / qcomp=0.60 / qpmin=0 / qpmax=69 / qpstep=4 / vbv_maxrate=50000 / vbv_bufsize=62500 / crf_max=0.0 / nal_hrd=none / filler=0 / ip_ratio=1.40 / pb_ratio=1.30 / aq=1:0.80
Language : German
Default : Yes
Forced : No
Matrix coefficients : BT.709
Audio #1
ID : 2
Format : AC-3
Format/Info : Audio Coding 3
Mode extension : CM (complete main)
Format settings, Endianness : Big
Codec ID : A_AC3
Duration : 1h 26mn
Bit rate mode : Constant
Bit rate : 192 Kbps
Channel(s) : 2 channels
Channel positions : Front: L R
Sampling rate : 48.0 KHz
Bit depth : 16 bits
Compression mode : Lossy
Stream size : 118 MiB (3%)
Title : 48KHz/16-bit, AC3, 2.0 (L,R) ch, 192 kbps - Профессиональный oдноголосый
Language : Russian
Default : Yes
Forced : No
Audio #2
ID : 3
Format : AC-3
Format/Info : Audio Coding 3
Mode extension : CM (complete main)
Format settings, Endianness : Big
Codec ID : A_AC3
Duration : 1h 26mn
Bit rate mode : Constant
Bit rate : 192 Kbps
Channel(s) : 2 channels
Channel positions : Front: L R
Sampling rate : 48.0 KHz
Bit depth : 16 bits
Compression mode : Lossy
Stream size : 118 MiB (3%)
Title : 48KHz/16-bit, AC3, 2.0 (L,R) ch, 192 kbps - Профессиональный oдноголосый
Language : Ukrainian
Default : No
Forced : No
Audio #3
ID : 4
Format : AC-3
Format/Info : Audio Coding 3
Mode extension : CM (complete main)
Format settings, Endianness : Big
Codec ID : A_AC3
Duration : 1h 26mn
Bit rate mode : Constant
Bit rate : 256 Kbps
Channel(s) : 2 channels
Channel positions : Front: L R
Sampling rate : 48.0 KHz
Bit depth : 16 bits
Compression mode : Lossy
Stream size : 158 MiB (3%)
Title : 48KHz/16-bit, AC3, 2.0 (L,R) ch, 256 kbps
Language : German
Default : No
Forced : No
Menu
00:00:00.000 : en:
00:01:45.200 : en:
00:06:26.960 : en:
00:16:45.680 : en:
00:29:58.160 : en:
00:38:48.080 : en:
00:46:18.800 : en:
00:55:47.120 : en:
01:01:28.880 : en:
01:02:26.000 : en:
01:16:21.200 : en:

Дополнительно

Сохранены оригинальные чаптеры как на Blu-ray.
Раздача от группы:
[Профиль] [ЛС]
Показать сообщения:    

Текущее время: Сегодня 18:16

Часовой пояс: GMT



Вы не можете начинать темы
Вы не можете отвечать на сообщения
Вы не можете редактировать свои сообщения
Вы не можете удалять свои сообщения
Вы не можете голосовать в опросах
Вы не можете прикреплять файлы к сообщениям
Вы не можете скачивать файлы