Золотой глобус: Оман / Golden Globe: Oman (Генрих Виттманн / Heinrich Wittmann) [2010 г., Документальный, BDRip 720p]

 
Автор Сообщение

TorrentFilm ®

Пол:

Стаж: 1 год 11 месяцев

Сообщений: 7741



Награды: Нет

Торрент-статистика

Создавать темы 16-Фев-2015 00:01

[Цитировать]

Золотой глобус: Оман / Golden Globe: Oman
-Год выпуска: 2010
Страна: Германия | Komplett-Media
Жанр: Документальный
Продолжительность: 01:30:24
Перевод: Профессиональный одноголосый, DVD R5
Режиссер: Генрих Виттманн / Heinrich Wittmann
Русские субтитры: нет-Описание: Среди богатых государств Аравийского полуострова Оман остается немного в тени, постепенно набирая силу с недавних пор. Однако стремление к современности не означает отказ от традиции. Потомки Синдбада-Морехода по-прежнему больше интересуются племенными скакунами и верблюдами, чем современными гаджетами. На полуостров Мусандам, принадлежащий Оману, мы доберемся через узкую полоску земли, пролегающую по территории ОАЭ. Мы совершим путешествие вдоль побережья до исторического порта Сухар и столицы Маскат, где затеряемся в лабиринтах восточных базаров. Заглянем в Великую Мечеть и дворец-отель родом из сказок «Тысяча и одной ночи». Дорога, ведущая вдоль пальмовых рощ, приведет нас в Низву, в прошлом политический и религиозный центр региона Затем мы заглянем в Бахлу—городок гончаров, — посетим крепость Джарбин и судоверфь Сура, где строят традиционные лодки доу. Во время путешествия через пустыню мы остановимся в лагере бедуинов, которые приятно удивят нас своим гостеприимством. Совершенно иной климат ждет нас в Вади Тиви, райской долине, покрытой буйной растительностью. В Салале мы узнаем тайны добычи ароматного ладана, одного из ценнейших благовоний древнего мира. Именно ладан принес несметные богатства легендарному городу Убар, который зовут «пустынной Атлантидой». Он был стерт с лица земли невиданным катаклизмом или же, как считают некоторые, гневом Аллаха...-Релиз: by DeTorquemada-Тип релиза: BDRip 720p
Контейнер: MKV
Видео: 1280x720 at 25.000 fps, x264@L4.1, 7862 kbps
Аудио: Russian: 48 kHz/16-bit, АС3, 2.0 (L,R) ch, ~192 kbps
Аудио 2: Ukrainian: 48 kHz/16-bit, АС3, 2.0 (L,R) ch, ~192 kbps
Аудио 3: German: 48 kHz/16-bit, АС3, 2.0 (L,R) ch, ~256 kbps
Субтитры: нет
Сэмпл-

Скриншоты

MediaInfo

General
Unique ID : 243989401696163272670704472371452904020 (0xB78EA64494F710C186A414F4D33F0254)
Complete name : D:\Фильмы\Oman.2010.720p.BluRay.Rus.Ukr.Ger.HDCLUB.mkv
Format : Matroska
Format version : Version 4 / Version 2
File size : 5.48 GiB
Duration : 1h 30mn
Overall bit rate : 8 675 Kbps
Movie name : Create by DeTorquemada for HDCLUB
Encoded date : UTC 2014-08-11 13:10:47
Writing application : mkvmerge v7.0.0 ('Where We Going') 64bit built on Jun 9 2014 15:16:27
Writing library : libebml v1.3.0 + libmatroska v1.4.1
DURATION : 01:30:24.800000000
NUMBER_OF_FRAMES : 169525
NUMBER_OF_BYTES : 173593600
_STATISTICS_WRITING_APP : mkvmerge v7.0.0 ('Where We Going') 64bit built on Jun 9 2014 15:16:27
_STATISTICS_WRITING_DATE_UTC : 2014-08-11 13:10:47
_STATISTICS_TAGS : BPS DURATION NUMBER_OF_FRAMES NUMBER_OF_BYTES
Video
ID : 1
Format : AVC
Format/Info : Advanced Video Codec
Format profile : High@L4.1
Format settings, CABAC : Yes
Format settings, ReFrames : 7 frames
Codec ID : V_MPEG4/ISO/AVC
Duration : 1h 30mn
Bit rate : 7 862 Kbps
Width : 1 280 pixels
Height : 720 pixels
Display aspect ratio : 16:9
Frame rate mode : Constant
Frame rate : 25.000 fps
Color space : YUV
Chroma subsampling : 4:2:0
Bit depth : 8 bits
Scan type : Progressive
Bits/(Pixel*Frame) : 0.341
Stream size : 4.97 GiB (91%)
Title : Золотой Глобус: Оман / Golden Glob: Oman (2010) - Release for HDCLUB
Writing library : x264 core 138 r2358 9e941d1
Encoding settings : cabac=1 / ref=7 / deblock=1:-3:-3 / analyse=0x3:0x113 / me=umh / subme=10 / psy=1 / psy_rd=1.00:0.00 / mixed_ref=1 / me_range=48 / chroma_me=1 / trellis=2 / 8x8dct=1 / cqm=0 / deadzone=21,11 / fast_pskip=1 / chroma_qp_offset=-2 / threads=6 / lookahead_threads=1 / sliced_threads=0 / nr=0 / decimate=1 / interlaced=0 / bluray_compat=0 / constrained_intra=0 / bframes=3 / b_pyramid=2 / b_adapt=2 / b_bias=0 / direct=1 / weightb=1 / open_gop=0 / weightp=2 / keyint=250 / keyint_min=25 / scenecut=40 / intra_refresh=0 / rc_lookahead=65 / rc=crf / mbtree=0 / crf=17.0 / qcomp=0.60 / qpmin=0 / qpmax=69 / qpstep=4 / vbv_maxrate=50000 / vbv_bufsize=62500 / crf_max=0.0 / nal_hrd=none / ip_ratio=1.40 / pb_ratio=1.30 / aq=1:0.80
Language : English
Default : Yes
Forced : No
DURATION : 01:30:24.920000000
NUMBER_OF_FRAMES : 135623
NUMBER_OF_BYTES : 5446877850
_STATISTICS_WRITING_APP : mkvmerge v7.0.0 ('Where We Going') 64bit built on Jun 9 2014 15:16:27
_STATISTICS_WRITING_DATE_UTC : 2014-08-11 13:10:47
_STATISTICS_TAGS : BPS DURATION NUMBER_OF_FRAMES NUMBER_OF_BYTES
Matrix coefficients : BT.709
Audio #1
ID : 2
Format : AC-3
Format/Info : Audio Coding 3
Mode extension : CM (complete main)
Format settings, Endianness : Big
Codec ID : A_AC3
Duration : 1h 30mn
Bit rate mode : Constant
Bit rate : 192 Kbps
Channel(s) : 2 channels
Channel positions : Front: L R
Sampling rate : 48.0 KHz
Bit depth : 16 bits
Compression mode : Lossy
Stream size : 124 MiB (2%)
Title : 48KHz/16-bit, AC3, 2.0 (L,R) ch, 192 kbps - Профессиональный oдноголосый
Language : Russian
Default : Yes
Forced : No
Audio #2
ID : 3
Format : AC-3
Format/Info : Audio Coding 3
Mode extension : CM (complete main)
Format settings, Endianness : Big
Codec ID : A_AC3
Duration : 1h 30mn
Bit rate mode : Constant
Bit rate : 192 Kbps
Channel(s) : 2 channels
Channel positions : Front: L R
Sampling rate : 48.0 KHz
Bit depth : 16 bits
Compression mode : Lossy
Stream size : 124 MiB (2%)
Title : 48KHz/16-bit, AC3, 2.0 (L,R) ch, 192 kbps - Профессиональный oдноголосый
Language : Ukrainian
Default : No
Forced : No
Audio #3
ID : 4
Format : AC-3
Format/Info : Audio Coding 3
Mode extension : CM (complete main)
Format settings, Endianness : Big
Codec ID : A_AC3
Duration : 1h 30mn
Bit rate mode : Constant
Bit rate : 256 Kbps
Channel(s) : 2 channels
Channel positions : Front: L R
Sampling rate : 48.0 KHz
Bit depth : 16 bits
Compression mode : Lossy
Stream size : 166 MiB (3%)
Title : 48KHz/16-bit, AC3, 2.0 (L,R) ch, 256 kbps
Language : English
Default : No
Forced : No
Menu
00:00:00.000 : en:
00:01:35.480 : en:
00:08:31.880 : en:
00:15:15.680 : en:
00:37:20.480 : en:
00:51:13.880 : en:
00:54:34.880 : en:
01:01:01.880 : en:
01:14:27.680 : en:
01:18:21.680 : en:
01:22:24.680 : en:

Дополнительно

Сохранены оригинальные чаптеры как на Blu-ray.
Раздача от группы:
[Профиль] [ЛС]
Показать сообщения:    

Текущее время: Сегодня 18:00

Часовой пояс: GMT



Вы не можете начинать темы
Вы не можете отвечать на сообщения
Вы не можете редактировать свои сообщения
Вы не можете удалять свои сообщения
Вы не можете голосовать в опросах
Вы не можете прикреплять файлы к сообщениям
Вы не можете скачивать файлы