Золотой глобус: Намибия / Golden Globe: Namibia (Катрин Вагнер / Kathrin Wagner, Херберт Ленц / Herbert Lenz) [2009 г., Документальный, BDRip 720p]

 
Автор Сообщение

TorrentFilm ®

Пол:

Стаж: 2 года

Сообщений: 7741



Награды: Нет

Торрент-статистика

Создавать темы 12-Фев-2015 00:16

[Цитировать]

Золотой глобус: Намибия / Golden Globe: Namibia
-Год выпуска: 2009
Страна: Германия | Komplett-Media
Жанр: Документальный
Продолжительность: 01:32:45
Перевод: Профессиональный одноголосый, DVD R5
Режиссер: Катрин Вагнер / Kathrin Wagner, Херберт Ленц / Herbert Lenz
Русские субтитры: нет-Описание: Бескрайние просторы, золотистые травы, оранжевые дюны и раскинувшаяся на километры каменистая пустыня. Тут и там скалы причудливых форм, высеченные за миллионы лет водой, ветром и солнцем. Намибия — выжженная солнцем частица Южной Африки. Наше путешествие начинается в столице страны, Виндхуке, где колониальное прошлое неразрывно связано с африканским колоритом и космополитичной современностью. По дороге на юг мы увидим живописный парк скал и гигантский каньон Фиш-Ривер. Через Намиб, древнейшую пустыню мира, лежит путь к городу Колманскоп, опустевшему после того, как истощилось месторождение алмазов по соседству. Отрезок пути до огромных дюн Сос-сусфлея мы преодолеем на воздушном шаре. Далее последуют увлекательные экскурсии по Намибии, посещение заповедника Кейп-Кросс и Твайфелфонтейна с доисторической наскальной живописью, а также национального парка Этоша с богатейшей флорой и фауной. Экспедиция завершится в Каприви — на самой плодородной земле Намибии, которая узкой полосой выдается между Анголой, Замбией и Ботсваной. Ее жизненная артерия — река Окаванго.-Релиз: by DeTorquemada-Тип релиза: BDRip 720p
Контейнер: MKV
Видео: 1280x720 at 25.000 fps, x264@L4.1, 7547 kbps
Аудио: Russian: 48 kHz/16-bit, АС3, 2.0 (L,R) ch, ~192 kbps
Аудио 2: Ukrainian: 48 kHz/16-bit, АС3, 2.0 (L,R) ch, ~192 kbps
Аудио 3: German: 48 kHz/16-bit, АС3, 2.0 (L,R) ch, ~256 kbps
Субтитры: нет
Сэмпл-

Скриншоты

MediaInfo

General
Unique ID : 173527075332613411381214485795891492971 (0x828C195BA2C68A49823186C4992EB86B)
Complete name : D:\Фильмы\Namibia.2009.720p.BluRay.Rus.Ukr.Ger.HDCLUB.mkv
Format : Matroska
Format version : Version 4 / Version 2
File size : 5.41 GiB
Duration : 1h 32mn
Overall bit rate : 8 353 Kbps
Movie name : Create by DeTorquemada for HDCLUB
Encoded date : UTC 2014-08-12 12:40:21
Writing application : mkvmerge v7.0.0 ('Where We Going') 64bit built on Jun 9 2014 15:16:27
Writing library : libebml v1.3.0 + libmatroska v1.4.1
DURATION : 01:32:45.184000000
NUMBER_OF_FRAMES : 173912
NUMBER_OF_BYTES : 178085888
_STATISTICS_WRITING_APP : mkvmerge v7.0.0 ('Where We Going') 64bit built on Jun 9 2014 15:16:27
_STATISTICS_WRITING_DATE_UTC : 2014-08-12 12:40:21
_STATISTICS_TAGS : BPS DURATION NUMBER_OF_FRAMES NUMBER_OF_BYTES
Video
ID : 1
Format : AVC
Format/Info : Advanced Video Codec
Format profile : High@L4.1
Format settings, CABAC : Yes
Format settings, ReFrames : 7 frames
Codec ID : V_MPEG4/ISO/AVC
Duration : 1h 32mn
Bit rate : 7 547 Kbps
Width : 1 280 pixels
Height : 720 pixels
Display aspect ratio : 16:9
Frame rate mode : Constant
Frame rate : 25.000 fps
Color space : YUV
Chroma subsampling : 4:2:0
Bit depth : 8 bits
Scan type : Progressive
Bits/(Pixel*Frame) : 0.328
Stream size : 4.89 GiB (90%)
Title : Золотой Глобус: Намибия / Golden Globe: Namibia (2009) - Release for HDCLUB
Writing library : x264 core 138 r2358 9e941d1
Encoding settings : cabac=1 / ref=7 / deblock=1:-3:-3 / analyse=0x3:0x113 / me=umh / subme=10 / psy=1 / psy_rd=1.00:0.00 / mixed_ref=1 / me_range=48 / chroma_me=1 / trellis=2 / 8x8dct=1 / cqm=0 / deadzone=21,11 / fast_pskip=1 / chroma_qp_offset=-2 / threads=6 / lookahead_threads=1 / sliced_threads=0 / nr=0 / decimate=1 / interlaced=0 / bluray_compat=0 / constrained_intra=0 / bframes=3 / b_pyramid=2 / b_adapt=2 / b_bias=0 / direct=1 / weightb=1 / open_gop=0 / weightp=2 / keyint=250 / keyint_min=25 / scenecut=40 / intra_refresh=0 / rc_lookahead=65 / rc=crf / mbtree=0 / crf=17.0 / qcomp=0.60 / qpmin=0 / qpmax=69 / qpstep=4 / vbv_maxrate=50000 / vbv_bufsize=62500 / crf_max=0.0 / nal_hrd=none / ip_ratio=1.40 / pb_ratio=1.30 / aq=1:0.80
Language : English
Default : Yes
Forced : No
DURATION : 01:32:45.240000000
NUMBER_OF_FRAMES : 139131
NUMBER_OF_BYTES : 5364171481
_STATISTICS_WRITING_APP : mkvmerge v7.0.0 ('Where We Going') 64bit built on Jun 9 2014 15:16:27
_STATISTICS_WRITING_DATE_UTC : 2014-08-12 12:40:21
_STATISTICS_TAGS : BPS DURATION NUMBER_OF_FRAMES NUMBER_OF_BYTES
Matrix coefficients : BT.709
Audio #1
ID : 2
Format : AC-3
Format/Info : Audio Coding 3
Mode extension : CM (complete main)
Format settings, Endianness : Big
Codec ID : A_AC3
Duration : 1h 32mn
Bit rate mode : Constant
Bit rate : 192 Kbps
Channel(s) : 2 channels
Channel positions : Front: L R
Sampling rate : 48.0 KHz
Bit depth : 16 bits
Compression mode : Lossy
Stream size : 127 MiB (2%)
Title : 48KHz/16-bit, AC3, 2.0 (L,R) ch, 192 kbps - Профессиональный oдноголосый
Language : Russian
Default : Yes
Forced : No
Audio #2
ID : 3
Format : AC-3
Format/Info : Audio Coding 3
Mode extension : CM (complete main)
Format settings, Endianness : Big
Codec ID : A_AC3
Duration : 1h 32mn
Bit rate mode : Constant
Bit rate : 192 Kbps
Channel(s) : 2 channels
Channel positions : Front: L R
Sampling rate : 48.0 KHz
Bit depth : 16 bits
Compression mode : Lossy
Stream size : 127 MiB (2%)
Title : 48KHz/16-bit, AC3, 2.0 (L,R) ch, 192 kbps - Профессиональный oдноголосый
Language : Ukrainian
Default : No
Forced : No
Audio #3
ID : 4
Format : AC-3
Format/Info : Audio Coding 3
Mode extension : CM (complete main)
Format settings, Endianness : Big
Codec ID : A_AC3
Duration : 1h 32mn
Bit rate mode : Constant
Bit rate : 256 Kbps
Channel(s) : 2 channels
Channel positions : Front: L R
Sampling rate : 48.0 KHz
Bit depth : 16 bits
Compression mode : Lossy
Stream size : 170 MiB (3%)
Title : 48KHz/16-bit, AC3, 2.0 (L,R) ch, 256 kbps
Language : German
Default : No
Forced : No
Menu
00:00:00.000 : en:
00:02:28.880 : en:
00:16:15.440 : en:
00:22:33.680 : en:
00:34:57.680 : en:
00:43:07.280 : en:
00:54:16.880 : en:
00:59:30.320 : en:
01:03:47.600 : en:
01:11:14.000 : en:
01:22:15.920 : en:

Дополнительно

Сохранены оригинальные чаптеры как на Blu-ray.
Раздача от группы:
[Профиль] [ЛС]
Показать сообщения:    

Текущее время: Сегодня 06:08

Часовой пояс: GMT



Вы не можете начинать темы
Вы не можете отвечать на сообщения
Вы не можете редактировать свои сообщения
Вы не можете удалять свои сообщения
Вы не можете голосовать в опросах
Вы не можете прикреплять файлы к сообщениям
Вы не можете скачивать файлы