Золотой Глобус: Коста-Рика / Golden Globe: Costa Rica (Петра Барделе / Petra Bardehle, Вольфганг Мингенбах / Wolfgang Wingenbach) [2011 г., Документальный, BDRip 720p]

 
Автор Сообщение

TorrentFilm ®

Пол:

Стаж: 1 год 11 месяцев

Сообщений: 7741



Награды: Нет

Торрент-статистика

Создавать темы 16-Фев-2015 00:01

[Цитировать]

Золотой Глобус: Коста-Рика / Golden Globe: Costa Rica
-Год выпуска: 2011
Страна: Германия | Komplett-Media
Жанр: Документальный
Продолжительность: 01:31:09
Перевод: Профессиональный одноголосый, DVD R5
Режиссер: Петра Барделе / Petra Bardehle, Вольфганг Мингенбах / Wolfgang Wingenbach
Русские субтитры: нет-Описание: Коста-Рика, государство в Центральной Америке, раздираемой конфликтами и измученной нищетой, кажется ничем иным, как островком счастья. Столица Сан-Хосе, политический и экономический центр государства, расположена на обширном плато в центральной части страны. Плато зажато между обширными горными массивами. Его вулканические почвы обеспечивают прекрасные условия для роста кофе — главного экспортного товара Коста-Рики. Вулканы Поас и Ирасу по-прежнему активны, однако, несмотря на грозные раскаты, пока остаются спокойными. Красотами национального парка Тортугеро мы полюбуемся с лодки, проплывая по реке Рио-Тортугеро. После полного приключений путешествия к национальному парку Ла-Амистад мы окажемся лицом к лицу с одним из самых активных вулканов в мире — Ареналем. Огромной популярностью у туристов пользуется и полуостров Никоя с его чудесными пляжами. С ними контрастируют дикие земли Кордильера-де-Тиларан и национального парка Корковадо на полуострове Оса. Жажду приключений пробудит в нас путешествие вдоль берегов Рио-Савегре, родины божественной птицы кетцаль.-Релиз: by DeTorquemada-Тип релиза: BDRip 720p
Контейнер: MKV
Видео: 1280x720 at 25.000 fps, x264@L4.1, 8061 kbps
Аудио: Russian: 48 kHz/16-bit, АС3, 2.0 (L,R) ch, ~192 kbps
Аудио 2: Ukrainian: 48 kHz/16-bit, АС3, 2.0 (L,R) ch, ~192 kbps
Аудио 3: German: 48 kHz/16-bit, АС3, 2.0 (L,R) ch, ~256 kbps
Субтитры: нет-Сэмпл-

Скриншоты

MediaInfo

General
Unique ID : 228545892222621443673879818572375131838 (0xABF05676C5C23FD8A9D58A098AFA06BE)
Complete name : D:\Фильмы\Costa.Rica.2011.720p.BluRay.Rus.Ukr.Ger.HDCLUB.mkv
Format : Matroska
Format version : Version 4 / Version 2
File size : 5.65 GiB
Duration : 1h 31mn
Overall bit rate : 8 877 Kbps
Movie name : Create by DeTorquemada for HDCLUB
Encoded date : UTC 2014-07-22 14:26:16
Writing application : mkvmerge v7.0.0 ('Where We Going') 64bit built on Jun 9 2014 15:16:27
Writing library : libebml v1.3.0 + libmatroska v1.4.1
DURATION : 01:31:09.760000000
NUMBER_OF_FRAMES : 170930
NUMBER_OF_BYTES : 175032320
_STATISTICS_WRITING_APP : mkvmerge v7.0.0 ('Where We Going') 64bit built on Jun 9 2014 15:16:27
_STATISTICS_WRITING_DATE_UTC : 2014-07-22 14:26:16
_STATISTICS_TAGS : BPS DURATION NUMBER_OF_FRAMES NUMBER_OF_BYTES
Video
ID : 1
Format : AVC
Format/Info : Advanced Video Codec
Format profile : High@L4.1
Format settings, CABAC : Yes
Format settings, ReFrames : 7 frames
Codec ID : V_MPEG4/ISO/AVC
Duration : 1h 31mn
Bit rate : 8 061 Kbps
Width : 1 280 pixels
Height : 720 pixels
Display aspect ratio : 16:9
Frame rate mode : Constant
Frame rate : 25.000 fps
Color space : YUV
Chroma subsampling : 4:2:0
Bit depth : 8 bits
Scan type : Progressive
Bits/(Pixel*Frame) : 0.350
Stream size : 5.13 GiB (91%)
Title : Золотой глобус: Коста Рика / Golden Globe: Costa Rica (2011) - realise for HDCLUB
Writing library : x264 core 138 r2358 9e941d1
Encoding settings : cabac=1 / ref=7 / deblock=1:-3:-3 / analyse=0x3:0x113 / me=umh / subme=10 / psy=1 / psy_rd=1.00:0.00 / mixed_ref=1 / me_range=48 / chroma_me=1 / trellis=2 / 8x8dct=1 / cqm=0 / deadzone=21,11 / fast_pskip=1 / chroma_qp_offset=-2 / threads=6 / lookahead_threads=1 / sliced_threads=0 / nr=0 / decimate=1 / interlaced=0 / bluray_compat=0 / constrained_intra=0 / bframes=3 / b_pyramid=2 / b_adapt=2 / b_bias=0 / direct=1 / weightb=1 / open_gop=0 / weightp=2 / keyint=250 / keyint_min=25 / scenecut=40 / intra_refresh=0 / rc_lookahead=65 / rc=crf / mbtree=0 / crf=17.0 / qcomp=0.60 / qpmin=0 / qpmax=69 / qpstep=4 / vbv_maxrate=50000 / vbv_bufsize=62500 / crf_max=0.0 / nal_hrd=none / ip_ratio=1.40 / pb_ratio=1.30 / aq=1:0.80
Language : German
Default : Yes
Forced : No
DURATION : 01:31:09.880000000
NUMBER_OF_FRAMES : 136747
NUMBER_OF_BYTES : 5630649148
_STATISTICS_WRITING_APP : mkvmerge v7.0.0 ('Where We Going') 64bit built on Jun 9 2014 15:16:27
_STATISTICS_WRITING_DATE_UTC : 2014-07-22 14:26:16
_STATISTICS_TAGS : BPS DURATION NUMBER_OF_FRAMES NUMBER_OF_BYTES
Matrix coefficients : BT.709
Audio #1
ID : 2
Format : AC-3
Format/Info : Audio Coding 3
Mode extension : CM (complete main)
Format settings, Endianness : Big
Codec ID : A_AC3
Duration : 1h 31mn
Bit rate mode : Constant
Bit rate : 192 Kbps
Channel(s) : 2 channels
Channel positions : Front: L R
Sampling rate : 48.0 KHz
Bit depth : 16 bits
Compression mode : Lossy
Stream size : 125 MiB (2%)
Title : 48KHz/16bit, AC3, 2.0 (L,R) ch, 192 kbps - Профессиональный oдноголосый
Language : Russian
Default : Yes
Forced : No
Audio #2
ID : 3
Format : AC-3
Format/Info : Audio Coding 3
Mode extension : CM (complete main)
Format settings, Endianness : Big
Codec ID : A_AC3
Duration : 1h 31mn
Bit rate mode : Constant
Bit rate : 192 Kbps
Channel(s) : 2 channels
Channel positions : Front: L R
Sampling rate : 48.0 KHz
Bit depth : 16 bits
Compression mode : Lossy
Stream size : 125 MiB (2%)
Title : 48KHz/16bit, AC3, 2.0 (L,R) ch, 192 kbps - Профессиональный oдноголосый
Language : Ukrainian
Default : No
Forced : No
Audio #3
ID : 4
Format : AC-3
Format/Info : Audio Coding 3
Mode extension : CM (complete main)
Format settings, Endianness : Big
Codec ID : A_AC3
Duration : 1h 31mn
Bit rate mode : Constant
Bit rate : 256 Kbps
Channel(s) : 2 channels
Channel positions : Front: L R
Sampling rate : 48.0 KHz
Bit depth : 16 bits
Compression mode : Lossy
Stream size : 167 MiB (3%)
Title : 48KHz/16bit, AC3, 2.0 (L,R) ch, 256 kbps
Language : German
Default : No
Forced : No
Menu
00:00:00.000 : en:
00:01:30.799 : en:
00:13:26.000 : en:
00:24:31.760 : en:
00:41:38.960 : en:
00:50:52.880 : en:
00:57:48.080 : en:
01:13:05.360 : en:
01:16:20.720 : en:
01:24:39.439 : en:
01:28:23.600 : en:

Дополнительно

Сохранены оригинальные чаптеры как на Blu-ray.
Раздача от группы:
[Профиль] [ЛС]
Показать сообщения:    

Текущее время: Сегодня 20:08

Часовой пояс: GMT



Вы не можете начинать темы
Вы не можете отвечать на сообщения
Вы не можете редактировать свои сообщения
Вы не можете удалять свои сообщения
Вы не можете голосовать в опросах
Вы не можете прикреплять файлы к сообщениям
Вы не можете скачивать файлы