Золотой Глобус: Йемен / Golden Globe: Yemen (Вольвганг Вингенбах / Wolfgang Wingenbach) [2010, документальный, BDRip 720p]

 
Автор Сообщение

TorrentFilm ®

Пол:

Стаж: 2 года

Сообщений: 7741



Награды: Нет

Торрент-статистика

Создавать темы 04-Янв-2015 00:00

[Цитировать]

Золотой Глобус: Йемен / Golden Globe: Yemen
-Год выпуска: 2010
Страна: Германия | Komplett-Media
Жанр: Документальный
Продолжительность: 01:36:50
Перевод: Профессиональный одноголосый (DVD R5)
Режиссер: Вольвганг Вингенбах / Wolfgang Wingenbach
Русские субтитры: нет-Описание: Легендарные сокровища царицы Савской, волшебные города с глиняными дворцами, экзотика Востока, источающего ароматы мирра и ладана, — Йемен на протяжении сотен лет искушал путешественников западного мира, но не впускал их, оставаясь Терра Инкогнита. Древние греки и римляне называли этот край «Арабиа Феликс» («Счастливая Аравия»). Расположенный на торговом пути между Востоком и Европой, он постоянно богател, но в то же время был лакомым кусочком для захватчиков. Вражеские армии многократно проходили через столицу Йемена — Сану, которой это не помешало остаться архитектурной жемчужиной, как будто сошедшей со страниц «Тысяча и одной ночи». Горный север открывает перед нами укрепленные городки: Тхулу, Хабабу, Кав-кабан и Амран. Достопримечательность деревни Шахара — мост XVII века на высоте 2200 м над землей. Шедевр инженерного искусства — Большая плотина в Марибе. В долине Вади Хад-рамаут мы познакомимся с Шибамом — городом многовековых глиняных небоскребов. Путешествие по пустыне Руб-аль-Хали кончается на побережье, где вырос портовый город Мукалла. Мы завершим наше путешествие визитом на архипелаг Сокотра в Индийском океане, принадлежащий Йемену. Он чем-то напоминает Ноев Ковчег, сохранивший редкие виды растений и животных.-Релиз: by DeTorquemada-Тип релиза: BDRip 720p
Контейнер: MKV
Видео: 1280x720 at 25.000 fps, x264@L4.1, 7515 kbps
Аудио: Russian: 48 kHz/16-bit, АС3, 2.0 (L,R) ch, ~192 kbps
Аудио 2: Ukrainian: 48 kHz/16-bit, АС3, 2.0 (L,R) ch, ~192 kbps
Аудио 3: German: 48 kHz/16-bit, АС3, 2.0 (L,R) ch, ~256 kbps
Субтитры: Нет
Сэмпл-

Скриншоты

MediaInfo

General
Unique ID : 239097872029992554968567955890033140710 (0xB3E0933C4186AA09A726B2BE51E423E6)
Complete name : D:\Фильмы\Yemen.2010.720p.BluRay.Rus.Ukr.Ger.HDCLUB.mkv
Format : Matroska
Format version : Version 4 / Version 2
File size : 5.63 GiB
Duration : 1h 36mn
Overall bit rate : 8 320 Kbps
Movie name : Create by DeTorquemada for HDCLUB
Encoded date : UTC 2014-08-04 13:21:36
Writing application : mkvmerge v7.0.0 ('Where We Going') 64bit built on Jun 9 2014 15:16:27
Writing library : libebml v1.3.0 + libmatroska v1.4.1
DURATION : 01:36:50.240000000
NUMBER_OF_FRAMES : 181570
NUMBER_OF_BYTES : 185927680
_STATISTICS_WRITING_APP : mkvmerge v7.0.0 ('Where We Going') 64bit built on Jun 9 2014 15:16:27
_STATISTICS_WRITING_DATE_UTC : 2014-08-04 13:21:36
_STATISTICS_TAGS : BPS DURATION NUMBER_OF_FRAMES NUMBER_OF_BYTES
Video
ID : 1
Format : AVC
Format/Info : Advanced Video Codec
Format profile : High@L4.1
Format settings, CABAC : Yes
Format settings, ReFrames : 7 frames
Codec ID : V_MPEG4/ISO/AVC
Duration : 1h 36mn
Bit rate : 7 515 Kbps
Width : 1 280 pixels
Height : 720 pixels
Display aspect ratio : 16:9
Frame rate mode : Constant
Frame rate : 25.000 fps
Color space : YUV
Chroma subsampling : 4:2:0
Bit depth : 8 bits
Scan type : Progressive
Bits/(Pixel*Frame) : 0.326
Stream size : 5.08 GiB (90%)
Title : Золотой Глобус: Йемен / Golden Globe: Yemen (2010) - Release for HDCLUB
Writing library : x264 core 138 r2358 9e941d1
Encoding settings : cabac=1 / ref=7 / deblock=1:-3:-3 / analyse=0x3:0x113 / me=umh / subme=10 / psy=1 / psy_rd=1.00:0.00 / mixed_ref=1 / me_range=48 / chroma_me=1 / trellis=2 / 8x8dct=1 / cqm=0 / deadzone=21,11 / fast_pskip=1 / chroma_qp_offset=-2 / threads=6 / lookahead_threads=1 / sliced_threads=0 / nr=0 / decimate=1 / interlaced=0 / bluray_compat=0 / constrained_intra=0 / bframes=3 / b_pyramid=2 / b_adapt=2 / b_bias=0 / direct=1 / weightb=1 / open_gop=0 / weightp=2 / keyint=250 / keyint_min=25 / scenecut=40 / intra_refresh=0 / rc_lookahead=65 / rc=crf / mbtree=0 / crf=17.0 / qcomp=0.60 / qpmin=0 / qpmax=69 / qpstep=4 / vbv_maxrate=50000 / vbv_bufsize=62500 / crf_max=0.0 / nal_hrd=none / ip_ratio=1.40 / pb_ratio=1.30 / aq=1:0.80
Language : German
Default : Yes
Forced : No
DURATION : 01:36:50.280000000
NUMBER_OF_FRAMES : 145257
NUMBER_OF_BYTES : 5576208925
_STATISTICS_WRITING_APP : mkvmerge v7.0.0 ('Where We Going') 64bit built on Jun 9 2014 15:16:27
_STATISTICS_WRITING_DATE_UTC : 2014-08-04 13:21:36
_STATISTICS_TAGS : BPS DURATION NUMBER_OF_FRAMES NUMBER_OF_BYTES
Matrix coefficients : BT.709
Audio #1
ID : 2
Format : AC-3
Format/Info : Audio Coding 3
Mode extension : CM (complete main)
Format settings, Endianness : Big
Codec ID : A_AC3
Duration : 1h 36mn
Bit rate mode : Constant
Bit rate : 192 Kbps
Channel(s) : 2 channels
Channel positions : Front: L R
Sampling rate : 48.0 KHz
Bit depth : 16 bits
Compression mode : Lossy
Stream size : 133 MiB (2%)
Title : 48KHz/16-bit, AC3, 2.0 (L,R) ch, 192 kbps - Профессиональный oдноголосый
Language : Russian
Default : Yes
Forced : No
Audio #2
ID : 3
Format : AC-3
Format/Info : Audio Coding 3
Mode extension : CM (complete main)
Format settings, Endianness : Big
Codec ID : A_AC3
Duration : 1h 36mn
Bit rate mode : Constant
Bit rate : 192 Kbps
Channel(s) : 2 channels
Channel positions : Front: L R
Sampling rate : 48.0 KHz
Bit depth : 16 bits
Compression mode : Lossy
Stream size : 133 MiB (2%)
Title : 48KHz/16-bit, AC3, 2.0 (L,R) ch, 192 kbps - Профессиональный oдноголосый
Language : Ukrainian
Default : No
Forced : No
Audio #3
ID : 4
Format : AC-3
Format/Info : Audio Coding 3
Mode extension : CM (complete main)
Format settings, Endianness : Big
Codec ID : A_AC3
Duration : 1h 36mn
Bit rate mode : Constant
Bit rate : 256 Kbps
Channel(s) : 2 channels
Channel positions : Front: L R
Sampling rate : 48.0 KHz
Bit depth : 16 bits
Compression mode : Lossy
Stream size : 177 MiB (3%)
Title : 48KHz/16-bit, AC3, 2.0 (L,R) ch, 256 kbps
Language : German
Default : No
Forced : No
Menu
00:00:00.000 : en:
00:01:57.679 : en:
00:14:53.480 : en:
00:17:40.280 : en:
00:29:45.080 : en:
00:36:56.480 : en:
00:42:12.080 : en:
00:51:28.880 : en:
01:02:17.479 : en:
01:09:39.680 : en:
01:13:00.680 : en:

Дополнительно

Сохранены оригинальные чаптеры как на Blu-ray.
Раздача от группы:
[Профиль] [ЛС]
Показать сообщения:    

Текущее время: Сегодня 13:05

Часовой пояс: GMT



Вы не можете начинать темы
Вы не можете отвечать на сообщения
Вы не можете редактировать свои сообщения
Вы не можете удалять свои сообщения
Вы не можете голосовать в опросах
Вы не можете прикреплять файлы к сообщениям
Вы не можете скачивать файлы