Золотой глобус: Гавайи / Golden Globe: Hawaii (Петра Барделе / Petra Bardehle, Вольфганг Мингенбах / Wolfgang Wingenbach) [2009 г., Документальный, BDRip 720p]

 
Автор Сообщение

TorrentFilm ®

Пол:

Стаж: 2 года

Сообщений: 7741



Награды: Нет

Торрент-статистика

Создавать темы 24-Апр-2015 00:02

[Цитировать]

Золотой глобус: Гавайи / Golden Globe: Hawaii
-Год выпуска: 2009
Страна: Германия | Komplett-Media
Жанр: Документальный
Продолжительность: 01:39:23
Перевод: Профессиональный одноголосый, DVD R5
Режиссер: Петра Барделе / Petra Bardehle, Вольфганг Мингенбах / Wolfgang Wingenbach
Русские субтитры: нет-Описание: Кусочек Америки в самом центре Тихого океана? Добро пожаловать на Гавайи, 50-й штат Соединенных Штатов, одинокий архипелаг, лежащий на расстоянии четыре тысячи километров от континента. Расположение на Тропике Рака, теплый климат и буйная природа сделали его привлекательным для прекрасного отдыха на протяжении всего года. Наиболее густо заселены пять самых крупных островов архипелага: Мауи, Кауаи, Гавайи, Молокаи и Оаху. Меккой для любителей водных видов спорта служит знаменитый пляж Вайкики протянувшийся вдоль шеренги небоскребов в Гонолулу. На этом клочке побережья площадью неполных 2 квадратных километра каждый год отдыхает более семи миллионов туристов, которые соперничают за 30 тысяч гостиничных мест. Гораздо спокойнее и тише на «Острове садов»— Кауаи. Его главные природные достопримечательности — крутое побережье на Пали и могучий каньон Ваймеа. Остров Мауи мы всегда узнаем по гигантскому вулкану Халеакала, где, согласно древним мифам, обитало солнце, пойманное гавайским богом. Над островом Гавайи возвышается сразу два вулкана. Следы их активности напоминают о происхождении всех Гавайских островов— несмотря на райский вид они произошли от подземного огня.-Релиз: by DeTorquemada-Тип релиза: BDRip 720p
Контейнер: MKV
Видео: 1280x720 at 25.000 fps, x264@L4.1, 7466 kbps
Аудио: Russian: 48 kHz/16-bit, АС3, 2.0 (L,R) ch, ~192 kbps
Аудио 2: Ukrainian: 48 kHz/16-bit, АС3, 2.0 (L,R) ch, ~192 kbps
Аудио 3: German: 48 kHz/16-bit, АС3, 2.0 (L,R) ch, ~256 kbps
Субтитры: нет-Сэмпл-

Скриншоты

MediaInfo

General
Unique ID : 244757943858897242542877669352756517543 (0xB822AA5270E62DE8978F3B7F9B449AA7)
Complete name : D:\Фильмы\Hawaii.2009.720p.BluRay.Rus.Ukr.Ger.HDCLUB.mkv
Format : Matroska
Format version : Version 4 / Version 2
File size : 5.74 GiB
Duration : 1h 39mn
Overall bit rate : 8 271 Kbps
Movie name : Create by DeTorquemada for HDCLUB
Encoded date : UTC 2015-03-06 13:33:47
Writing application : mkvmerge v7.2.0 ('On Every Street') 64bit built on Sep 13 2014 15:52:10
Writing library : libebml v1.3.0 + libmatroska v1.4.1
Video
ID : 1
Format : AVC
Format/Info : Advanced Video Codec
Format profile : High@L4.1
Format settings, CABAC : Yes
Format settings, ReFrames : 7 frames
Codec ID : V_MPEG4/ISO/AVC
Duration : 1h 39mn
Bit rate : 7 466 Kbps
Width : 1 280 pixels
Height : 720 pixels
Display aspect ratio : 16:9
Frame rate mode : Constant
Frame rate : 25.000 fps
Color space : YUV
Chroma subsampling : 4:2:0
Bit depth : 8 bits
Scan type : Progressive
Bits/(Pixel*Frame) : 0.324
Stream size : 5.18 GiB (90%)
Title : Golden Globe: Hawaii (2009) - Release for HDCLUB
Writing library : x264 core 138 r2358 9e941d1
Encoding settings : cabac=1 / ref=7 / deblock=1:-3:-3 / analyse=0x3:0x113 / me=umh / subme=10 / psy=1 / psy_rd=1.00:0.00 / mixed_ref=1 / me_range=48 / chroma_me=1 / trellis=2 / 8x8dct=1 / cqm=0 / deadzone=21,11 / fast_pskip=1 / chroma_qp_offset=-2 / threads=6 / lookahead_threads=1 / sliced_threads=0 / nr=0 / decimate=1 / interlaced=0 / bluray_compat=0 / constrained_intra=0 / bframes=3 / b_pyramid=2 / b_adapt=2 / b_bias=0 / direct=1 / weightb=1 / open_gop=0 / weightp=2 / keyint=250 / keyint_min=25 / scenecut=40 / intra_refresh=0 / rc_lookahead=65 / rc=crf / mbtree=0 / crf=17.0 / qcomp=0.60 / qpmin=0 / qpmax=69 / qpstep=4 / vbv_maxrate=50000 / vbv_bufsize=62500 / crf_max=0.0 / nal_hrd=none / ip_ratio=1.40 / pb_ratio=1.30 / aq=1:0.80
Language : German
Default : Yes
Forced : No
Matrix coefficients : BT.709
Audio #1
ID : 2
Format : AC-3
Format/Info : Audio Coding 3
Mode extension : CM (complete main)
Format settings, Endianness : Big
Codec ID : A_AC3
Duration : 1h 39mn
Bit rate mode : Constant
Bit rate : 192 Kbps
Channel(s) : 2 channels
Channel positions : Front: L R
Sampling rate : 48.0 KHz
Bit depth : 16 bits
Compression mode : Lossy
Stream size : 136 MiB (2%)
Title : 48KHz/16-bit, АС3, 2.0 (L,R) ch, 192 kbps - Профессиональный oдноголосый
Language : Russian
Default : Yes
Forced : No
Audio #2
ID : 3
Format : AC-3
Format/Info : Audio Coding 3
Mode extension : CM (complete main)
Format settings, Endianness : Big
Codec ID : A_AC3
Duration : 1h 39mn
Bit rate mode : Constant
Bit rate : 192 Kbps
Channel(s) : 2 channels
Channel positions : Front: L R
Sampling rate : 48.0 KHz
Bit depth : 16 bits
Compression mode : Lossy
Stream size : 136 MiB (2%)
Title : 48KHz/16-bit, АС3, 2.0 (L,R) ch, 192 kbps - Профессиональный oдноголосый
Language : Ukrainian
Default : No
Forced : No
Audio #3
ID : 4
Format : AC-3
Format/Info : Audio Coding 3
Mode extension : CM (complete main)
Format settings, Endianness : Big
Codec ID : A_AC3
Duration : 1h 39mn
Bit rate mode : Constant
Bit rate : 256 Kbps
Channel(s) : 2 channels
Channel positions : Front: L R
Sampling rate : 48.0 KHz
Bit depth : 16 bits
Compression mode : Lossy
Stream size : 182 MiB (3%)
Title : 48KHz/16-bit, АС3, 2.0 (L,R) ch, 256 kbps
Language : German
Default : No
Forced : No
Menu
00:00:00.000 : en:
00:03:03.440 : en:
00:21:25.040 : en:
00:26:47.600 : en:
00:44:16.880 : en:
00:52:22.640 : en:
00:56:10.640 : en:
01:01:38.479 : en:
01:09:03.439 : en:
01:14:40.880 : en:
01:19:56.240 : en:
01:34:12.080 : en:

Дополнительно

Сохранены оригинальные чаптеры как на Blu-ray.
Раздача от группы:
[Профиль] [ЛС]
Показать сообщения:    

Текущее время: Сегодня 22:05

Часовой пояс: GMT



Вы не можете начинать темы
Вы не можете отвечать на сообщения
Вы не можете редактировать свои сообщения
Вы не можете удалять свои сообщения
Вы не можете голосовать в опросах
Вы не можете прикреплять файлы к сообщениям
Вы не можете скачивать файлы